Девочка для зайчика (Светлана Разгуляева) [2012, Россия, Мультфильм, DVDRip]


 

[Цитировать]

Девочка для зайчика
Страна: Россия
Жанр: Мультфильм
Год выпуска: 2012
Продолжительность: 00:08:39
Режиссер: Светлана Разгуляева
Описание: У каждого есть свой мир, и в чужом мире нельзя быть тем кто ты есть на самом деле.
Доп. информация: ВГИК
Качество видео: DVDRip
Формат видео: AVI
Видео: 640x480 (1.33:1), 25 fps, DivX Codec 5.x or 6.x ~1252 kbps avg, 0.16 bit/pixel
Аудио: 44.100 kHz, MPEG Layer 3, 2 ch, ~160.00 kbps avg

MediaInfo

General
Complete name : D:\МУЛЬТФИЛЬМЫ\Девочка для зайчика 2012.avi
Format : AVI
Format/Info : Audio Video Interleave
File size : 88.0 MiB
Duration : 8mn 39s
Overall bit rate : 1 423 Kbps
Writing application : VirtualDubMod 1.5.10.2 (build 2540/release)
Writing library : VirtualDubMod build 2540/release
Video
ID : 0
Format : MPEG-4 Visual
Format settings, BVOP : 1
Format settings, QPel : No
Format settings, GMC : No warppoints
Format settings, Matrix : Default (H.263)
Muxing mode : Packed bitstream
Codec ID : DX50
Codec ID/Hint : DivX 5
Duration : 8mn 39s
Bit rate : 1 253 Kbps
Width : 640 pixels
Height : 480 pixels
Display aspect ratio : 4:3
Frame rate : 25.000 fps
Color space : YUV
Chroma subsampling : 4:2:0
Bit depth : 8 bits
Scan type : Progressive
Compression mode : Lossy
Bits/(Pixel*Frame) : 0.163
Stream size : 77.5 MiB (88%)
Writing library : DivX 6.8.5 (UTC 2009-08-20)
Audio
ID : 1
Format : MPEG Audio
Format version : Version 1
Format profile : Layer 3
Codec ID : 55
Codec ID/Hint : MP3
Duration : 8mn 38s
Bit rate mode : Constant
Bit rate : 160 Kbps
Channel(s) : 2 channels
Sampling rate : 44.1 KHz
Compression mode : Lossy
Stream size : 9.90 MiB (11%)
Alignment : Split accross interleaves
Interleave, duration : 40 ms (1.00 video frame)
Interleave, preload duration : 500 ms
Writing library : LAME3.96r
Encoding settings : -m s -V 4 -q 3 -lowpass 18 -b 160

Скриншот c названием фильма

Скриншоты




Показать сообщения:    

Текущее время: 03-Дек 18:43

Часовой пояс: UTC + 3


Вы не можете начинать темы
Вы не можете отвечать на сообщения
Вы не можете редактировать свои сообщения
Вы не можете удалять свои сообщения
Вы не можете голосовать в опросах
Вы не можете прикреплять файлы к сообщениям
Вы не можете скачивать файлы