Коллекция / Колекцiя (Константин Баранов) [1991, Украина, короткометражный анимационный, TVRip]


 

[Цитировать]

Коллекция / Колекцiя
Страна: Украина
Жанр: короткометражный анимационный
Год выпуска: 1991
Продолжительность: 00:08:40
Перевод: Не требуется
Cубтитры: нет
Оригинальная аудиодорожка: Музыкальное сопровождение
Режиссер: Константин Баранов
Описание: Мультипликационный фильм для взрослых. В фильме использованы оригинальные пачки от сигарет, как образы персонажей почти всей истории Советского Союза.
Доп. информация: Укранимафильм
Качество видео: TVRip
Формат видео: AVI
Видео: 640x480 (1.33:1), 25 fps, XviD build 50 ~2221 kbps avg, 0.29 bit/pixel
Аудио: 48 kHz, MPEG Layer 3, 2 ch, ~192.00 kbps avg

MediaInfo

General
Complete name : D:\kollekciya.avi
Format : AVI
Format/Info : Audio Video Interleave
File size : 150 MiB
Duration : 8mn 40s
Overall bit rate : 2 424 Kbps
Writing application : VirtualDubMod 1.5.10.3 | www.virtualdub-fr.org || (build 2550/release)
Writing library : VirtualDubMod build 2550/release
Video
ID : 0
Format : MPEG-4 Visual
Format profile : Advanced Simple@L5
Format settings, BVOP : 2
Format settings, QPel : No
Format settings, GMC : No warppoints
Format settings, Matrix : Default (H.263)
Codec ID : XVID
Codec ID/Hint : XviD
Duration : 8mn 40s
Bit rate : 2 222 Kbps
Width : 640 pixels
Height : 480 pixels
Display aspect ratio : 4:3
Frame rate : 25.000 fps
Color space : YUV
Chroma subsampling : 4:2:0
Bit depth : 8 bits
Scan type : Progressive
Compression mode : Lossy
Bits/(Pixel*Frame) : 0.289
Stream size : 138 MiB (92%)
Writing library : XviD 1.2.1 (UTC 2008-12-04)
Audio
ID : 1
Format : MPEG Audio
Format version : Version 1
Format profile : Layer 3
Codec ID : 55
Codec ID/Hint : MP3
Duration : 8mn 40s
Bit rate mode : Constant
Bit rate : 192 Kbps
Channel(s) : 2 channels
Sampling rate : 48.0 KHz
Compression mode : Lossy
Stream size : 11.9 MiB (8%)
Alignment : Aligned on interleaves
Interleave, duration : 40 ms (1.00 video frame)
Interleave, preload duration : 504 ms
Writing library : LAME3.98r
Encoding settings : -m s -V 4 -q 0 -lowpass 18.6 -b 192

Скриншот c названием фильма

Скриншоты




Показать сообщения:    

Текущее время: 18-Янв 00:24

Часовой пояс: UTC + 3


Вы не можете начинать темы
Вы не можете отвечать на сообщения
Вы не можете редактировать свои сообщения
Вы не можете удалять свои сообщения
Вы не можете голосовать в опросах
Вы не можете прикреплять файлы к сообщениям
Вы не можете скачивать файлы