Серый / Сиво / Grey (Иван Русев / Ivan Rusev) [2005, Болгария, анимация, чёрный юмор, WEBRip-AVC]


 

[Цитировать]

Серый / Сиво / Grey
Страна: Болгария
Жанр: анимация, чёрный юмор
Год выпуска: 2005
Продолжительность: 00:07:59
Перевод: Не требуется
Режиссер: Иван Русев / Ivan Rusev
Описание: Старушка, пошедшая в магазин за яйцами и опоздавшая на автобус, и «белый воротничок», пошедший за бензином и лишившийся автомобиля, становятся невольными товарищами по несчастью на автобусной остановке.
Качество видео: WEBRip
Формат видео: MP4
Видео: 597 kbps, 640х480 (4:3), 25.000 fps, AVC
Аудио: 115 kbps, 44.1 kHz, 2 channels, AAC (LC)

MediaInfo

Общее
Полное имя : Grey (Ivan Rusev) 2005.mp4
Формат : MPEG-4
Профиль формата : Base Media
Идентификатор кодека : isom
Размер файла : 40,9 Мбайт
Продолжительность : 7 м. 59 с.
Режим общего битрейта : Переменный
Общий поток : 716 Кбит/сек
Дата кодирования : UTC 2010-09-18 11:47:03
Дата пометки : UTC 2010-09-19 11:47:04
Видео
Идентификатор : 1
Формат : AVC
Формат/Информация : Advanced Video Codec
Профиль формата : High@L3.1
Параметр CABAC формата : Да
Параметр ReFrames формата : 4 кадра
Идентификатор кодека : avc1
Идентификатор кодека/Информация : Advanced Video Coding
Продолжительность : 7 м. 59 с.
Битрейт : 597 Кбит/сек
Максимальный битрейт : 2098 Кбит/сек
Ширина : 640 пикселей
Высота : 480 пикселей
Соотношение сторон : 4:3
Режим частоты кадров : Постоянный
Частота кадров : 25,000 кадров/сек
Цветовое пространство : YUV
Субдискретизация насыщенности : 4:2:0
Битовая глубина : 8 бит
Тип развёртки : Прогрессивная
Бит/(Пиксели*Кадры) : 0.078
Размер потока : 34,2 Мбайт (83%)
Библиотека кодирования : Vimeo Encoder
Дата кодирования : UTC 2010-09-18 11:47:03
Дата пометки : UTC 2010-09-18 11:47:03
Аудио
Идентификатор : 2
Формат : AAC
Формат/Информация : Advanced Audio Codec
Профиль формата : LC
Идентификатор кодека : 40
Продолжительность : 7 м. 59 с.
Вид битрейта : Переменный
Битрейт : 115 Кбит/сек
Максимальный битрейт : 210 Кбит/сек
Каналы : 2 канала
Расположение каналов : Front: L R
Частота : 44,1 КГц
Метод сжатия : С потерями
Размер потока : 6,55 Мбайт (16%)
Дата кодирования : UTC 2010-09-18 11:47:03
Дата пометки : UTC 2010-09-18 11:47:03

Скриншот c названием фильма

Скриншоты




Показать сообщения:    

Текущее время: 18-Янв 02:33

Часовой пояс: UTC + 3


Вы не можете начинать темы
Вы не можете отвечать на сообщения
Вы не можете редактировать свои сообщения
Вы не можете удалять свои сообщения
Вы не можете голосовать в опросах
Вы не можете прикреплять файлы к сообщениям
Вы не можете скачивать файлы