Новые приключения Дяди Сэма / The further adventures of Uncle Sam (Роберт Митчелл, Дэйл Кэс / Robert Mitchell, Dale Case) [1971, США, авторская анимация, DVDRip]


 

[Цитировать]

Новые приключения Дяди Сэма / The further adventures of Uncle Sam
Страна: США
Жанр: авторская анимация
Год выпуска: 1971
Продолжительность: 00:12:52
Перевод: не требуется
Cубтитры: нет
Режиссёры: Роберт Митчелл, Дэйл Кэс / Robert Mitchell, Dale Case
Описание: Сатирический мультфильм, в котором почти все персонажи – национальные американские символы.
Дядя Сэм и Американский Орёл спокойно работают на бензозаправке. Но однажды Дядю Сэма похищают Денежные Мешки. Орёл отправляется на выручку друга (пешком), а тем временем злодеи планируют похитить ещё и Статую Свободы…
Гран-при фестиваля «Annecy» в категории короткометражных мультфильмов.
Номинация на «Оскар».
Доп. информация: Редкий фильм, лишь недавно ставший доступным на видео.
Качество видео: DVDRip
Формат видео: AVI
Видео: 746 kbps, 636х480 (4:3), 25.000 fps, MPEG-4 (XviD)
Аудио: 128 kbps, 44.1 kHz, 2 channels, MPEG Audio (MP3)

MediaInfo

Общее
Полное имя : The Further Adventures of Uncle Sam (1970).avi
Формат : AVI
Формат/Информация : Audio Video Interleave
Размер файла : 81,5 Мбайт
Продолжительность : 12 м.
Общий поток : 886 Кбит/сек
Программа кодирования : Lavf54.29.105
Видео
Идентификатор : 0
Формат : MPEG-4 Visual
Профиль формата : Simple@L1
Параметр BVOP формата : Нет
Параметр QPel формата : Нет
Параметр GMC формата : Без точки перехода
Параметр матрицы формата : Default (H.263)
Идентификатор кодека : XVID
Идентификатор кодека/Подсказка : XviD
Продолжительность : 12 м.
Битрейт : 746 Кбит/сек
Ширина : 636 пикселей
Высота : 480 пикселей
Соотношение сторон : 4:3
Частота кадров : 25,000 кадров/сек
Цветовое пространство : YUV
Субдискретизация насыщенности : 4:2:0
Битовая глубина : 8 бит
Тип развёртки : Прогрессивная
Метод сжатия : С потерями
Бит/(Пиксели*Кадры) : 0.098
Размер потока : 68,6 Мбайт (84%)
Библиотека кодирования : Lavc54.63.100
Аудио
Идентификатор : 1
Формат : MPEG Audio
Версия формата : Version 1
Профиль формата : Layer 3
Режим : Joint stereo
Расширение режима : MS Stereo
Идентификатор кодека : 55
Идентификатор кодека/Подсказка : MP3
Продолжительность : 12 м.
Вид битрейта : Постоянный
Битрейт : 128 Кбит/сек
Каналы : 2 канала
Частота : 44,1 КГц
Метод сжатия : С потерями
Размер потока : 11,8 Мбайт (14%)
Выравнивание : Соединение по промежуткам
Продолжительность промежутка : 26 мс. (0,65 видеокадр)
Время предзагрузки промежутка : 25 мс.
Библиотека кодирования : LAME3.99.5

Скриншоты c названием фильма

Скриншоты




Показать сообщения:    

Текущее время: 04-Дек 02:54

Часовой пояс: UTC + 3


Вы не можете начинать темы
Вы не можете отвечать на сообщения
Вы не можете редактировать свои сообщения
Вы не можете удалять свои сообщения
Вы не можете голосовать в опросах
Вы не можете прикреплять файлы к сообщениям
Вы не можете скачивать файлы