Кролик / Rabbit (Ран Рэйк / Run Wrake) [2005, Великобритания, авторская анимация, чёрный юмор, DVDRip]


 

[Цитировать]

Кролик / Rabbit
Страна: Великобритания
Жанр: авторская анимация, чёрный юмор
Год выпуска: 2005
Продолжительность: 00:08:41
Перевод: Не требуется
Режиссёр: Ран Рэйк / Run Wrake
Описание: Зарезав кролика, мальчик и девочка находят внутри волшебного идола, превращающего насекомых в бриллианты, чернила и перья. Дети решают построить на этом бизнес. К чему приведёт их жадность?
Весьма интересен дизайн фильма, созданный на основе детских образовательных наклеек 50-тых годов.
Доп. информация: "Приз жюри" - Hiroshima Animation Festival (2006)
"Специальное упоминание" - Annecy Animated Film Festival (2006)
"Специальное упоминание" - Krakow Film Festival (2006)
"Лучший короткометражный фильм" - Rotterdam Film Festival (2006)
"Лучший дизайн" - Tallinn Black Nights Film Festival (2006)
"Гран-при" - Vila do Conde Short Film Festival (2006)
"Лучший короткометражный фильм" и "Самый передовой мультфильм" - British Animation Awards (2006)
Качество видео: DVDRip
Формат видео: AVI
Видео: 1417 kbps, 640х480 (4:3), 25.000 fps, MPEG-4 (DivX 5)
Аудио: 192 kbps, 48.0 kHz, 2 channels, AC-3

MediaInfo

Общее
Полное имя : Rabbit (2005).avi
Формат : AVI
Формат/Информация : Audio Video Interleave
Размер файла : 100 Мбайт
Продолжительность : 8 м. 41 с.
Общий поток : 1617 Кбит/сек
Программа кодирования : Nandub v1.0rc2
Библиотека кодирования : Nandub build 1852/release
Видео
Идентификатор : 0
Формат : MPEG-4 Visual
Параметр BVOP формата : Нет
Параметр QPel формата : Нет
Параметр GMC формата : Без точки перехода
Параметр матрицы формата : Default (H.263)
Идентификатор кодека : DX50
Идентификатор кодека/Подсказка : DivX 5
Продолжительность : 8 м. 41 с.
Битрейт : 1417 Кбит/сек
Ширина : 640 пикселей
Высота : 480 пикселей
Соотношение сторон : 4:3
Частота кадров : 25,000 кадров/сек
Цветовое пространство : YUV
Субдискретизация насыщенности : 4:2:0
Битовая глубина : 8 бит
Тип развёртки : Прогрессивная
Метод сжатия : С потерями
Бит/(Пиксели*Кадры) : 0.184
Размер потока : 88,0 Мбайт (88%)
Библиотека кодирования : DivX 6.4.0 (UTC 2006-10-03)
Аудио
Идентификатор : 1
Формат : AC-3
Формат/Информация : Audio Coding 3
Расширение режима : CM (complete main)
Параметр Endianness формата : Big
Идентификатор кодека : 2000
Продолжительность : 8 м. 41 с.
Вид битрейта : Постоянный
Битрейт : 192 Кбит/сек
Каналы : 2 канала
Расположение каналов : Front: L R
Частота : 48,0 КГц
Битовая глубина : 16 бит
Метод сжатия : С потерями
Размер потока : 11,9 Мбайт (12%)
Выравнивание : Соединение по промежуткам
Продолжительность промежутка : 64 мс. (1,60 видеокадра)
Время предзагрузки промежутка : 64 мс.

Скриншот c названием фильма

Скриншоты




Показать сообщения:    

Текущее время: 05-Дек 01:19

Часовой пояс: UTC + 3


Вы не можете начинать темы
Вы не можете отвечать на сообщения
Вы не можете редактировать свои сообщения
Вы не можете удалять свои сообщения
Вы не можете голосовать в опросах
Вы не можете прикреплять файлы к сообщениям
Вы не можете скачивать файлы