Цыпочка / Chick / Laska (Михал Соша / Michal Socha) [2009, короткометражный анимационный фильм, WEB-DLRip]


 

[Цитировать]

Цыпочка
Chick : Laska
Год выпуска: 2009
Страна: Польша
Жанр: короткометражный анимационный фильм : animated short film
Продолжительность: 00:05:06
Перевод не требуется
субтитры: отсутствуют- Режиссёр: Михал Соша : Michal Socha- Описание: Полная юмора, исключительно правдивая история отношений между мужчиной и женщиной.- - Качество: WEB-DLRip |WEB-DL 720p|
Формат: AVI
Видео кодек: XviD
Аудио кодек: AC3
Видео: 704x352, (2.00:1), 25 fps, XviD MPEG-4 ~2004 kbps avg, 0.32 bit/pixel
Аудио: 32 kHz, AC3 Dolby Digital, 1/0 (C) ch, ~192 kbps--

AviInfo

File: Chick.Laska.2009.WEB-DLRip.avi
Filesize: 80.61 Mb ( 84 523 008 bytes )
Play length: 00:05:06.399 (7660 frames)
Subtitles: Not Present
Video: 704x352 (2.00:1), 25 fps, XviD MPEG-4 ~2004 kbps avg, 0.32 bit/pixel
Audio: 32 kHz, AC3 Dolby Digital, 1/0 (C) ch, ~192 kbps

MediaInfo

Общее
Полное имя : G:\ЯЯ\Цыпочка\Chick.Laska.2009.WEB-DLRip.avi
Формат : AVI
Формат/Информация : Audio Video Interleave
Размер файла : 80,6 Мбайт
Продолжительность : 5 м. 6 с.
Общий поток : 2207 Кбит/сек
Программа кодирования : VirtualDubModRus 1.5.10.2 (build 2542/release)
Библиотека кодирования : VirtualDubMod build 2542/release
Видео
Идентификатор : 0
Формат : MPEG-4 Visual
Профиль формата : Advanced Simple@L5
Параметр BVOP формата : 2
Параметр QPel формата : Нет
Параметр GMC формата : Без точки перехода
Параметр матрицы формата : Выборочная
Идентификатор кодека : XVID
Идентификатор кодека/Подсказка : XviD
Продолжительность : 5 м. 6 с.
Битрейт : 2005 Кбит/сек
Ширина : 704 пикселя
Высота : 352 пикселя
Соотношение сторон : 2,000
Частота кадров : 25,000 кадров/сек
Цветовое пространство : YUV
Субдискретизация насыщенности : 4:2:0
Битовая глубина : 8 бит
Тип развёртки : Прогрессивная
Метод сжатия : С потерями
Бит/(Пиксели*Кадры) : 0.324
Размер потока : 73,2 Мбайт (91%)
Библиотека кодирования : XviD 65
Аудио
Идентификатор : 1
Формат : AC-3
Формат/Информация : Audio Coding 3
Расширение режима : CM (complete main)
Идентификатор кодека : 2000
Продолжительность : 5 м. 6 с.
Вид битрейта : Постоянный
Битрейт : 192 Кбит/сек
Каналы : 1 канал
Расположение каналов : Front: C
Частота : 32,0 КГц
Битовая глубина : 16 бит
Метод сжатия : С потерями
Размер потока : 7,01 Мбайт (9%)
Выравнивание : Разделение по промежуткам
Продолжительность промежутка : 40 мс. (1,00 видеокадр)
Время предзагрузки промежутка : 500 мс.



Показать сообщения:    

Текущее время: 06-Дек 18:57

Часовой пояс: UTC + 3


Вы не можете начинать темы
Вы не можете отвечать на сообщения
Вы не можете редактировать свои сообщения
Вы не можете удалять свои сообщения
Вы не можете голосовать в опросах
Вы не можете прикреплять файлы к сообщениям
Вы не можете скачивать файлы