Жан-Франсуа / Jean-Francois / Jean-François (Том Огомэ / Tom Haugomat, Брюно Маньоку / Bruno Mangyoku) [2009, Франция, анимация, экзистенциальная драма, короткий метр, DVB]


 

[Цитировать]

Жан-Франсуа
Jean-François- Страна: Франция
Жанр: анимация, экзистенциальная драма, короткий метр
Год выпуска: 2009
Продолжительность: 00:05:46
Перевод: Не требуется
Cубтитры: нет
Оригинальная аудиодорожка: музыкальное сопровождение
Режиссер: Том Огомэ / Tom Haugomat, Брюно Маньоку / Bruno Mangyoku
В ролях: анимация
Описание: Атлет-пловец снова и снова возвращается в мир воспоминаний детства: море, отец, ракушки и далекий буй. Стремлению к победе перебивает щемящее чувство ностальгии по прошлому и желание доплыть до того самого далекого буя, что казалось в детстве таким недостижимым.
Доп. информация: Собственная запись со спутника (канал TV5MONDE).
Награды: приз за лучший дебют Annecy International Animation Film Festival 2010; номинация на лучшую короткометражку Warsaw International Film Festival 2010.
Информация: http://www.imdb.com/title/tt1548584/
Сэмпл: http://multi-up.com/809862
Качество видео: DVB
Формат видео: MPEG-PS
Видео: MPEG Video 2, 720x576@1024x576 (16:9), 25 fps, ~2617 kbps avg, 0.252 bit/pixel
Аудио: 48 kHz, MPEG Audio 2, 2 ch, ~192.00 kbps avg

MediaInfo

Полное имя : H:\My Torrents\[apreder]MINI_MOVIE_008\[apreder]MM_Jean-Francois(2009)DVB.mpgФормат : MPEG-PSРазмер файла : 118 МбайтПродолжительность : 5 м. 46 с.Режим общего битрейта : ПеременныйОбщий поток : 2866 Кбит/сек
ВидеоИдентификатор : 224 (0xE0)Формат : MPEG VideoВерсия формата : Version 2Профиль формата : Main@MainПараметр BVOP формата : ДаПараметр матрицы формата : ВыборочнаяПараметр GOP формата : M=3, N=24Продолжительность : 5 м. 46 с.Вид битрейта : ПеременныйБитрейт : 2617 Кбит/секШирина : 720 пикселейВысота : 576 пикселейСоотношение сторон : 16:9Частота кадров : 25,000 кадров/секСтандарт вещания : PALЦветовое пространство : YUVСубдискретизация насыщенности : 4:2:0Битовая глубина : 8 битТип развёртки : ПрогрессивнаяПорядок развёртки : Верхнее поле первоеМетод сжатия : С потерямиБит/(Пиксели*Кадры) : 0.252Размер потока : 108 Мбайт (91%)
АудиоИдентификатор : 192 (0xC0)Формат : MPEG AudioВерсия формата : Version 1Профиль формата : Layer 2Продолжительность : 5 м. 46 с.Вид битрейта : ПостоянныйБитрейт : 192 Кбит/секКаналы : 2 каналаЧастота : 48,0 КГцМетод сжатия : С потерямиРазмер потока : 7,93 Мбайт (7%)

Скриншот c названием фильма

Скриншоты

Скриншоты анаморфированные

-535/517√



Показать сообщения:    

Текущее время: 08-Дек 08:59

Часовой пояс: UTC + 3


Вы не можете начинать темы
Вы не можете отвечать на сообщения
Вы не можете редактировать свои сообщения
Вы не можете удалять свои сообщения
Вы не можете голосовать в опросах
Вы не можете прикреплять файлы к сообщениям
Вы не можете скачивать файлы