Водолазы под дождем / Tuukrid vihmas / Divers in the rain (Прийт Пярн / Priit Pärn) [2009, рисованная анимация, DVDRip]


 

[Цитировать]

Водолазы под дождем / Tuukrid vihmas / Divers in the rain
Страна: Эстония
Жанр: рисованная анимация
Продолжительность: 00:23:21
Год выпуска: 2009
Перевод: Не требуется
Русские субтитры: нет
Режиссёр: Прийт Пярн / Priit Pärn
Описание: Пронзительная история одного дня из жизни супружеской пары - дневного водолаза из спасательной команды и врача из пункта ночной стоматологической помощи. Работа позволяет им встречаться только на минуту утром и на минуту вечером, когда один уже вернулся, а другая должна уходить... Двое людей, утомлённых жизнью и своими отношениями, встречающиеся лишь урывками для прощального поцелуя, мысли, переживания героев - и бесконечный серый дождь над их миром...
Доп. информация: Одна из творческих вершин великого эстонского режиссера-мультипликатора Прийта Пярна, созданная им в соавторстве со своей супругой Ольгой, также известным художником-аниматором.
"Водолазы под дождем" стали самой успешной работой в фильмографии режиссера, а также во всей истории эстонской анимации. Эта неожиданно лиричная для Прийта Пярна работа собрала (и продолжает собирать) невообразимое число призов на крупнейших международных аанимационных фестивалях. Сейчас их число приближается к трём десяткам. И зрители, и критики на редкость единодушны (небывалый случай для сложной эстонской анимации) в оценке "Водолазов...": "Это шедевр!"

Награды

:
Список продолжает пополняться.
"Золотая абракадабра" 16-го кинофестиваля "Etiuda & Anima" (Краков, Польша, 2009)
Приз "Дон Кихот" от Международной федерации кинематографических обществ на 16-м кинофестивале "Etiuda & Anima" (Краков, Польша, 2009)
Гран-при международного фестиваля анимационных фильмов "Anima" (Брюссель, Бельгия, 2010)
Гран-при международного фестиваля анимационных фильмов "Monstra" (Лиссабон, Португалия, 2010)
Приз за лучший саундтрек на международном фестивале анимационных фильмов "Monstra" (Лиссабон, Португалия, 2010)
Гран-при международного фестиваля "Animafest Zagreb" (Загреб, Хорватия, 2010)
Приз города Хиросима на международном анимационном фестивале (Хиросима, Япония, 2010)
Приз за лучший сценарий на международном фестивале анимационных фильмов "Fantoche" (Баден, Швейцария, 2010)
Приз за лучший звук на международном фестивале анимационных фильмов "Fantoche" (Баден, Швейцария, 2010)
"Серебряный волк" за лучший короткометражный фильм на фестивале нового кино (Монреаль, Канада, 2010)
Гран-при международного фестиваля анимационных фильмов "Tofuzi" (Батуми, Грузия, 2010) [4]
Приз за лучший фильм северных и балтийских стран на Фредрикстадском фестивале анимационных фильмов "Fantoche" (Фредрикстад, Норвегия, 2010)
Приз за лучший среднеметражный фильм на международном фестивале анимационных фильмов "Cinanima" (Эшпинью, Португалия, 2010)
Приз за лучший сценарий на фестивале "Animated dreams" (Эстония, 2010)
Гран-при международного фестиваля анимационных фильмов "Anifest" (Тршебонь, Чехия, 2011)
Приз за лучший международный короткометражный фильм на международном фестивале анимационных фильмов "Anifilm" (Тршебонь, Чехия, 2011)
Особое оценка за лучшую режиссуру на международном фестивале анимационных фильмов «Animanima» (Сербия, 2011)
Гран-при 18-го международного фестиваля "Крок" (Одесса, Украина, 2011)
Семпл: http://multi-up.com/808853
Качество: DVDRip
Формат: AVI
Видео: 720х400 (16:9), 25 fps, XviD, 2537 Кбит/сек
Аудио: 192 Кбит/сек, 48000 Гц, 16 бит, 2 канала, AC3
Субтитры: отсутствуют

Подробные технические данные

Формат : AVIФормат/Информация : Audio Video InterleaveРазмер файла : 446 МбайтПродолжительность : 23 м.Общий поток : 2672 Кбит/секПрограмма кодирования : VirtualDubMod 1.5.4.1 (build 2178/release)Библиотека кодирования : VirtualDubMod build 2178/release
ВидеоИдентификатор : 0Формат : MPEG-4 VisualПрофиль формата : Advanced Simple@L5Параметр BVOP формата : 1Параметр QPel формата : НетПараметр GMC формата : Без точки переходаПараметр матрицы формата : ВыборочнаяИдентификатор кодека : XVIDИдентификатор кодека/Подсказка : XviDПродолжительность : 23 м.Битрейт : 2537 Кбит/секШирина : 720 пикселейВысота : 400 пикселейСоотношение сторон : 16:9Частота кадров : 25,000 кадров/секЦветовое пространство : YUVСубдискретизация насыщенности : 4:2:0Битовая глубина : 8 битТип развёртки : ПрогрессивнаяМетод сжатия : С потерямиБит/(Пиксели*Кадры) : 0.352Размер потока : 424 Мбайт (95%)Библиотека кодирования : XviD 1.0.0 (UTC 2004-05-09)
АудиоИдентификатор : 1Формат : MPEG AudioВерсия формата : Version 1Профиль формата : Layer 3Режим : Joint stereoРасширение режима : MS StereoИдентификатор кодека : 55Идентификатор кодека/Подсказка : MP3Продолжительность : 23 м.Вид битрейта : ПостоянныйБитрейт : 128 Кбит/секКаналы : 2 каналаЧастота : 48,0 КГцМетод сжатия : С потерямиРазмер потока : 21,4 Мбайт (5%)Выравнивание : Соединение по промежуткамПродолжительность промежутка : 80 мс. (2,00 видеокадра)Время предзагрузки промежутка : 504 мс.Язык : English



Показать сообщения:    

Текущее время: 05-Дек 19:40

Часовой пояс: UTC + 3


Вы не можете начинать темы
Вы не можете отвечать на сообщения
Вы не можете редактировать свои сообщения
Вы не можете удалять свои сообщения
Вы не можете голосовать в опросах
Вы не можете прикреплять файлы к сообщениям
Вы не можете скачивать файлы