Любовь и Кража / Love & Theft (Андреас Хюкаде / Andreas Hykade) [2010, Германия, авторская анимация, психоделика, WEBRip-AVC]


 

[Цитировать]

Любовь и Кража / Love & Theft
Страна: Германия
Жанр: авторская анимация, психоделика
Год выпуска: 2010
Продолжительность: 00:06:49
Перевод: Не требуется
Cубтитры: нет
Режиссер: Андреас Хюкаде / Andreas Hykade
Музыка: Хайко Майле / Heiko Maile
Описание: Мультфильм самобытного режиссёра Андреаса Хюкаде, похожий на наркотический трип. На экране под музыку преобразуются друг в друга мультяшные образы. Постепенно музыка становится жёстче, а образы – уродливей…
Качество видео: WEBRip-AVC
Формат видео: MP4
Видео: 1981 kbps, 1280х720 (16:9), 25.000 fps, AVC
Аудио: 126 kbps, 44.1 kHz, 2 channels, AAC (LC)

MediaInfo

Общее
Полное имя : Love & Theft (2010).mp4
Формат : MPEG-4
Профиль формата : Base Media / Version 2
Идентификатор кодека : mp42
Размер файла : 103 Мбайт
Продолжительность : 6 м. 49 с.
Режим общего битрейта : Переменный
Общий поток : 2109 Кбит/сек
Дата кодирования : UTC 2010-05-12 13:30:25
Дата пометки : UTC 2010-05-12 13:30:25
gsst : 0
gstd : 410273
gssd : B4A7DA0E5MH1353843353974120
gshh : o-o---preferred---sn-i5h7ln7d---v15---lscache8.c.youtube.com
Видео
Идентификатор : 2
Формат : AVC
Формат/Информация : Advanced Video Codec
Профиль формата : High@L3.1
Параметр CABAC формата : Да
Параметр ReFrames формата : 1 кадр
Параметр GOP формата : M=1, N=30
Идентификатор кодека : avc1
Идентификатор кодека/Информация : Advanced Video Coding
Продолжительность : 6 м. 49 с.
Битрейт : 1981 Кбит/сек
Максимальный битрейт : 21,4 Мбит/сек
Ширина : 1280 пикселей
Высота : 720 пикселей
Соотношение сторон : 16:9
Режим частоты кадров : Постоянный
Частота кадров : 25,000 кадров/сек
Цветовое пространство : YUV
Субдискретизация насыщенности : 4:2:0
Битовая глубина : 8 бит
Тип развёртки : Прогрессивная
Бит/(Пиксели*Кадры) : 0.086
Размер потока : 96,8 Мбайт (94%)
Заголовок : (C) 2007 Google Inc. v08.13.2007.
Дата кодирования : UTC 2010-05-12 13:30:26
Дата пометки : UTC 2010-05-12 13:30:27
Аудио
Идентификатор : 1
Формат : AAC
Формат/Информация : Advanced Audio Codec
Профиль формата : LC
Идентификатор кодека : 40
Продолжительность : 6 м. 49 с.
Вид битрейта : Переменный
Битрейт : 126 Кбит/сек
Максимальный битрейт : 165 Кбит/сек
Каналы : 2 канала
Расположение каналов : Front: L R
Частота : 44,1 КГц
Метод сжатия : С потерями
Размер потока : 6,15 Мбайт (6%)
Заголовок : (C) 2007 Google Inc. v08.13.2007.
Дата кодирования : UTC 2010-05-12 13:30:25
Дата пометки : UTC 2010-05-12 13:30:27

Скриншот c названием фильма

Скриншоты




Показать сообщения:    

Текущее время: 04-Дек 15:10

Часовой пояс: UTC + 3


Вы не можете начинать темы
Вы не можете отвечать на сообщения
Вы не можете редактировать свои сообщения
Вы не можете удалять свои сообщения
Вы не можете голосовать в опросах
Вы не можете прикреплять файлы к сообщениям
Вы не можете скачивать файлы