Шляпа / Le Chapeau / The Hat (Мишель Корнье / Michèle Cournoyer) [1999, Канада, авторская анимация, WEBRip-AVC]


 

[Цитировать]

Шляпа / Le Chapeau / The Hat
Страна: Канада
Жанр: авторская анимация
Год выпуска: 1999
Продолжительность: 00:06:12
Перевод: Не требуется
Cубтитры: нет
Режиссер: Мишель Корнье / Michèle Cournoyer
Описание: Череда непрерывных визуальных метаморфоз, отображающих подсознание юной стриптизёрши, подвергавшейся в детстве сексуальным домогательствам взрослого мужчины, чья шляпа навсегда стала для неё подавляющим символом.
Доп. информация: 12 призов международных фестивалей.
Качество видео: WEBRip-AVC
Формат видео: MP4
Видео: 742 kbps, 640х480 (4:3), 23.976 fps, AVC
Аудио: 110 kbps, 44.1 kHz, 2 channels, AAC (LC)

MediaInfo

Общее
Полное имя : Le Chapeau (1999).mp4
Формат : MPEG-4
Профиль формата : Base Media
Идентификатор кодека : isom
Размер файла : 37,9 Мбайт
Продолжительность : 6 м. 12 с.
Режим общего битрейта : Переменный
Общий поток : 854 Кбит/сек
Дата кодирования : UTC 2011-09-20 19:09:27
Дата пометки : UTC 2011-09-21 19:09:28
Видео
Идентификатор : 1
Формат : AVC
Формат/Информация : Advanced Video Codec
Профиль формата : High@L3.1
Параметр CABAC формата : Да
Параметр ReFrames формата : 4 кадра
Идентификатор кодека : avc1
Идентификатор кодека/Информация : Advanced Video Coding
Продолжительность : 6 м. 11 с.
Битрейт : 742 Кбит/сек
Максимальный битрейт : 2103 Кбит/сек
Ширина : 640 пикселей
Высота : 480 пикселей
Соотношение сторон : 4:3
Режим частоты кадров : Постоянный
Частота кадров : 23,976 кадра/сек
Цветовое пространство : YUV
Субдискретизация насыщенности : 4:2:0
Битовая глубина : 8 бит
Тип развёртки : Прогрессивная
Бит/(Пиксели*Кадры) : 0.101
Размер потока : 32,9 Мбайт (87%)
Библиотека кодирования : Vimeo Encoder
Дата кодирования : UTC 2011-09-20 19:09:27
Дата пометки : UTC 2011-09-20 19:09:28
Аудио
Идентификатор : 2
Формат : AAC
Формат/Информация : Advanced Audio Codec
Профиль формата : LC
Идентификатор кодека : 40
Продолжительность : 6 м. 12 с.
Вид битрейта : Переменный
Битрейт : 110 Кбит/сек
Максимальный битрейт : 157 Кбит/сек
Каналы : 2 канала
Расположение каналов : Front: L R
Частота : 44,1 КГц
Метод сжатия : С потерями
Размер потока : 4,86 Мбайт (13%)
Дата кодирования : UTC 2011-09-20 19:09:28
Дата пометки : UTC 2011-09-20 19:09:28

Скриншот c названием фильма

Скриншоты




Показать сообщения:    

Текущее время: 08-Дек 14:57

Часовой пояс: UTC + 3


Вы не можете начинать темы
Вы не можете отвечать на сообщения
Вы не можете редактировать свои сообщения
Вы не можете удалять свои сообщения
Вы не можете голосовать в опросах
Вы не можете прикреплять файлы к сообщениям
Вы не можете скачивать файлы