Гвен, Книга песка / Gwen, the Book of Sand / Gwen, le livre de sable (Жан-Франсуа Лагиони / Jean-François Laguionie) [1985, Франция, фантастика, приключения, мультфильм, DVDRip] DVO (Григорий Войнер (ТО "Серебряная Полоса")


 

[Цитировать]

Гвен, Книга песка / Gwen, the Book of Sand / Gwen, le livre de sable
Страна: Франция
Жанр: фантастика, приключения, мультфильм
Год выпуска: 1985
Продолжительность: 01:01:00
Перевод: Любительский (двухголосый закадровый) Григорий Войнер (ТО "Серебряная Полоса")
Cубтитры: нет
Оригинальная аудиодорожка: нет
Режиссер: Жан-Франсуа Лагиони / Jean-François Laguionie
В ролях: Мишель Робен / Michel Robin, Лорелла Ди Чикко / Lorella Di Cicco, Арман Бабель / Armand Babel, Раймон Журдан / Raymond Jourdan, Саид Амади / Saïd Amadis, Бертран Ботиак / Bertrand Bautheac, Жак Бовье / Jacques Bouvier, Жак Руиссо / Jacques Ruisseau
Описание: Пост-апокалипсис. Гвен, юная девушка, оставшаяся сиротой, принята в кочевое племя пустынных жителей. Пустыню, где выжили только некоторые животные, как, например, страусы, тушканчики или скорпионы, таинственные боги покинули, но остались гигантские копии предметов из повседневной жизни нашего мира, таких как - сумки, телефоны, часы и кресла. Когда между Гвен и ее юным другом из племени кочевников завязываются отношения более, чем дружеские, мальчика таинственно похищают. Гвен и старая Розалин отправляются в путешествие, чтобы отыскать его. В конечном итоге они сталкиваются с другими людьми, живущими в изолированном городе и странным образом сохраняющими остатки древней цивилизации.
Доп. информация: Пейзажи - как будто сошедшие с картин Сальвадора Дали. Картина очень медленная и атмосферная, не детский мультик. Но и "мультфильмом для взрослых" его трудно назвать. Рекомендуется всем, кто любит арт-хаус, независимо от возраста.
Режиссер Жан-Франсуа Лагиони (Jean-François Laguionie)
Другие раздачи: Гвен, Книга песка DVD9 - 6.66 GB
СЭМПЛ http://multi-up.com/795860
Качество видео: DVDRip
Формат видео: AVI
Видео: DivX 5, 640х480, 4:3, 25.000 fps, 1 678 Kbps
Аудио: АС3 2000, 48.0 KHz, 192 Kbps, 2 channels, rus

MediaInfo

Complete name : Gwen le Livre de Sable (1985) .avi
Format : AVI
Format/Info : Audio Video Interleave
File size : 820 MiB
Duration : 1h 1mn
Overall bit rate : 1 880 Kbps
Writing application : VirtualDubMod 1.5.10.2 (build 2542/release)
Writing library : VirtualDubMod build 2542/release
Video
ID : 0
Format : MPEG-4 Visual
Format settings, BVOP : No
Format settings, QPel : No
Format settings, GMC : No warppoints
Format settings, Matrix : Default (H.263)
Codec ID : DX50
Codec ID/Hint : DivX 5
Duration : 1h 1mn
Bit rate : 1 678 Kbps
Width : 640 pixels
Height : 480 pixels
Display aspect ratio : 4:3
Frame rate : 25.000 fps
Color space : YUV
Chroma subsampling : 4:2:0
Bit depth : 8 bits
Scan type : Interlaced
Scan order : Bottom Field First
Bits/(Pixel*Frame) : 0.219
Stream size : 732 MiB (89%)
Writing library : DivX 6.8.2 (UTC 2008-05-17)
Audio
ID : 1
Format : AC-3
Format/Info : Audio Coding 3
Mode extension : CM (complete main)
Codec ID : 2000
Duration : 1h 0mn
Bit rate mode : Constant
Bit rate : 192 Kbps
Channel(s) : 2 channels
Channel positions : Front: L R
Sampling rate : 48.0 KHz
Stream size : 83.8 MiB (10%)
Alignment : Split accross interleaves
Interleave, duration : 40 ms (1.00 video frame)
Interleave, preload duration : 500 ms

Скриншот c названием фильма

dvd-cover

poster




Показать сообщения:    

Текущее время: 04-Дек 19:17

Часовой пояс: UTC + 3


Вы не можете начинать темы
Вы не можете отвечать на сообщения
Вы не можете редактировать свои сообщения
Вы не можете удалять свои сообщения
Вы не можете голосовать в опросах
Вы не можете прикреплять файлы к сообщениям
Вы не можете скачивать файлы