Женщина-скелет / La femme-squelette (Сара Ван Ден Бум / Sarah Van den Boom) [2009, драма, сказка, DVDRip] VO (Max Nabokov)


 

[Цитировать]

La femme-squelette / Женщина-скелет
Страна: Франция
Жанр: драма, сказка
Продолжительность: 00:09:09
Год выпуска: 2009
Перевод: Одноголосый закадровый (Max Nabokov)
Русские субтитры: Английские (интегрированные)
Режиссёр: Сара Ван Ден Бум / Sarah Van den Boom
Описание: История о женщине, погрязшей в груде домашних хлопот, ее тяготит утраченное взаимопонимание с мужем. История эта, переплетается с историей "женщины-скелета" из сказки Кларисы Пинколы Эстес (из произведения «Бегущая с волками»).

Качество: DVDRip
Формат: AVI
Видео: 720x400 (1.80:1), 24 fps, DivX Codec 5.x or 6.x ~1196 kbps avg, 0.17 bit/pixel
Аудио 1: 44.100 kHz, MPEG Layer 3, 2 ch, ~128.00 kbps avg (рус)
Аудио 2: 44.100 kHz, MPEG Layer 3, 2 ch, ~128.00 kbps avg (фран)

Подробные технические данные

GeneralComplete name : D:\МУЛЬТФИЛЬМЫ\La femme-squelette (Sarah Van den Boom, 2009).aviFormat : AVIFormat/Info : Audio Video InterleaveFile size : 96.0 MiBDuration : 9mn 9sOverall bit rate : 1 467 KbpsWriting application : VirtualDubMod 1.5.10.2 (build 2540/release)Writing library : VirtualDubMod build 2540/release
VideoID : 0Format : MPEG-4 VisualFormat settings, BVOP : 1Format settings, QPel : NoFormat settings, GMC : No warppointsFormat settings, Matrix : Default (H.263)Muxing mode : Packed bitstreamCodec ID : DX50Codec ID/Hint : DivX 5Duration : 9mn 9sBit rate : 1 197 KbpsWidth : 720 pixelsHeight : 400 pixelsDisplay aspect ratio : 16:9Frame rate : 24.000 fpsColor space : YUVChroma subsampling : 4:2:0Bit depth : 8 bitsScan type : ProgressiveCompression mode : LossyBits/(Pixel*Frame) : 0.173Stream size : 78.3 MiB (82%)Writing library : DivX 6.8.5 (UTC 2009-08-20)
Audio #1ID : 1Format : MPEG AudioFormat version : Version 1Format profile : Layer 3Codec ID : 55Codec ID/Hint : MP3Duration : 9mn 9sBit rate mode : ConstantBit rate : 128 KbpsChannel(s) : 2 channelsSampling rate : 44.1 KHzCompression mode : LossyStream size : 8.38 MiB (9%)Alignment : Split accross interleavesInterleave, duration : 42 ms (1.00 video frame)Interleave, preload duration : 500 msWriting library : LAME3.98rEncoding settings : -m s -V 4 -q 3 -lowpass 17 -b 128
Audio #2ID : 2Format : MPEG AudioFormat version : Version 1Format profile : Layer 3Mode : Joint stereoMode extension : MS StereoCodec ID : 55Codec ID/Hint : MP3Duration : 9mn 9sBit rate mode : ConstantBit rate : 128 KbpsChannel(s) : 2 channelsSampling rate : 44.1 KHzCompression mode : LossyStream size : 8.38 MiB (9%)Alignment : Split accross interleavesInterleave, duration : 42 ms (1.00 video frame)Interleave, preload duration : 500 ms

Скриншоты





Показать сообщения:    

Текущее время: 08-Дек 01:21

Часовой пояс: UTC + 3


Вы не можете начинать темы
Вы не можете отвечать на сообщения
Вы не можете редактировать свои сообщения
Вы не можете удалять свои сообщения
Вы не можете голосовать в опросах
Вы не можете прикреплять файлы к сообщениям
Вы не можете скачивать файлы