Кукла Берни / Berni's Doll (Ян Джоетт / Yann Jouette) [2007, Артхаус, Короткометражный, DVDRip]


 

[Цитировать]

Кукла Берни / Berni's Doll
Страна: Франция
Жанр: Артхаус, Короткометражный
Продолжительность: 00:11:19
Год выпуска: 2007
Перевод: Не требуется
Русские субтитры: нет
Режиссёр: Ян Джоетт / Yann Jouette
Описание: Заводской рабочий пытается заполнить одиночество женщиной,собранной из деталей, изготовленных в разных странах.
Доп. информация для модераторов: В фильме диалоги отсутствуют, но по сюжету, герой, пару раз смотрит короткую рекламу по тв. Переводить ее смысла нету т.к. все абсолютно ясно из картинки которую там показывают.
Качество: DVDRip
Формат: AVI
Видео: 720x512 (1.41:1), 25 fps, DivX Codec 5.x or 6.x ~1500 kbps avg, 0.16 bit/pixel
Аудио: 44.100 kHz, MPEG Layer 3, 2 ch, ~128.00 kbps avg
Субтитры: Отсутствуют

Подробные технические данные

GeneralComplete name : D:\МУЛЬТФИЛЬМЫ\Berni's Doll.2007.aviFormat : AVIFormat/Info : Audio Video InterleaveFile size : 133 MiBDuration : 11mn 19sOverall bit rate : 1 638 KbpsWriting application : VirtualDubMod 1.5.10.2 (build 2540/release)Writing library : VirtualDubMod build 2540/release
VideoID : 0Format : MPEG-4 VisualFormat settings, BVOP : 1Format settings, QPel : NoFormat settings, GMC : No warppointsFormat settings, Matrix : Default (H.263)Muxing mode : Packed bitstreamCodec ID : DX50Codec ID/Hint : DivX 5Duration : 11mn 19sBit rate : 1 500 KbpsWidth : 720 pixelsHeight : 512 pixelsDisplay aspect ratio : 1.406Frame rate : 25.000 fpsColor space : YUVChroma subsampling : 4:2:0Bit depth : 8 bitsScan type : ProgressiveCompression mode : LossyBits/(Pixel*Frame) : 0.163Stream size : 121 MiB (92%)Writing library : DivX 6.8.5 (UTC 2009-08-20)
AudioID : 1Format : MPEG AudioFormat version : Version 1Format profile : Layer 3Mode : Joint stereoMode extension : MS StereoCodec ID : 55Codec ID/Hint : MP3Duration : 11mn 19sBit rate mode : ConstantBit rate : 128 KbpsChannel(s) : 2 channelsSampling rate : 44.1 KHzCompression mode : LossyStream size : 10.4 MiB (8%)Alignment : Split accross interleavesInterleave, duration : 40 ms (1.00 video frame)Interleave, preload duration : 500 ms

Скриншоты








Показать сообщения:    

Текущее время: 09-Дек 14:39

Часовой пояс: UTC + 3


Вы не можете начинать темы
Вы не можете отвечать на сообщения
Вы не можете редактировать свои сообщения
Вы не можете удалять свои сообщения
Вы не можете голосовать в опросах
Вы не можете прикреплять файлы к сообщениям
Вы не можете скачивать файлы