Алоис Небель и его призраки / Алоис Небель / Alois Nebel (Томас Лунак / Tomas Lunak) [2011, Чехия, Германия, Драма, DVDRip] VO (Max Nabokov) Sub Rus + Original Cze


 

[Цитировать]

Алоис Небель и его призраки / Алоис Небель / Alois Nebel
Страна: Чехия, Германия
Жанр: Драма
Год выпуска: 2011
Продолжительность: 01:21:14
Перевод: Одноголосый закадровый (Max Nabokov)
Cубтитры: русские
Оригинальная аудиодорожка: чешский
Режиссер: Томас Лунак / Tomas Lunak
В ролях: Мирослав Кробот, Мари Людвикова, Леош Нога, Карел Роден, Алоис Швеглик, Ондржей Малый
Описание:
Вся его жизнь проходит под стук колес и гудки проезжающих мимо поездов. Аллоис Небель – станционный смотритель. Ему уже немало лет и у него нет семьи. Жизнь его однообразна и скучна. Из развлечений только старые расписания поездов. Которые он с интересом изучает, да кормление кошки.
Но есть у смотрителя одна тайна, мучающая его уже немалое время. Он видит галлюцинации, когда туман покрывает его маленькую деревушку. Они во многом похожи на его обычную жизнь. В них все те же поезда и расписания, только привозят они страшных призраков, которые доводят его до сумасшествия, вследствие которого смотритель оказывается в психиатрической клинике.
В клинике его встречает еще один странный персонаж. Это Немой. Никто не догадывается, как и зачем он здесь. Про него известно только, что он был арестован за незаконное пересечение границы и еще он таскает с собой целый ворох старинных фотографий. Только одно обстоятельство заставляет Небеля присмотреться к этому человеку - Немой как-то связан с бредовыми галлюцинациями так его измучившими.
Доп. информация: Этот фильм (а это именно Фильм) обнажает и показывает то, что в повседневности мы предпочитаем не замечать. На наши собственные слабости и пороки, которые, так или иначе, свойственны каждому человеку.
Прием ротоскопии, когда фильм снимается с живыми актерами, а уже после накладывается анимация, придает особенную живость персонажам. Все движения наполнены смыслом. Диалоги имеют гораздо меньшее значение, чем пейзажи, складки морщин на лице Алоиса и неизменное молчание Немого.
Сэмпл
Качество видео: DVDRip
Формат видео: AVI
Видео: 720x400 (1.80:1), 25 fps, XviD build 50 ~1966 kbps avg, 0.27 bit/pixel
Аудио #1: 48 kHz, AC3 Dolby Digital, 2/0 (L,R) ch, ~192.00 kbps avg
Аудио #2: 48 kHz, AC3 Dolby Digital, 3/2 (L,C,R,l,r) + LFE ch, ~448.00 kbps avg
Формат субтитров: softsub (SRT)

Субтитры

1
00:00:50,807 --> 00:00:52,604
Есеник 9:20.
2
00:00:55,847 --> 00:00:58,486
Станция, Липова Ласне 9:24.
3
00:01:02,047 --> 00:01:03,844
Сама, Липова Ласне 9:30.
4
00:01:07,447 --> 00:01:09,597
Белый поток 9:38.
5
00:01:13,807 --> 00:01:15,604
Рамзова 9:50.
6
00:01:19,207 --> 00:01:21,482
Остружна 9:54.
7
00:01:25,327 --> 00:01:27,124
Бранна 10:05.
8
00:01:30,527 --> 00:01:32,643
Нова Лосина 10:12.
9
00:01:36,087 --> 00:01:38,521
Северная Моравия 10:18.
10
00:01:41,207 --> 00:01:43,004
Потучник 10:24.
11
00:01:47,447 --> 00:01:49,597
Ханишовица 10:44.
12
00:01:53,647 --> 00:01:55,842
Бохдиков 10:52.
13
00:01:59,927 --> 00:02:02,122
Koмнятка 10:56.
14
00:02:07,607 --> 00:02:09,962
Руда-над-Моравой 11:01 .
15
00:02:15,887 --> 00:02:18,117
Бартонов 11:05.
16
00:02:22,847 --> 00:02:24,997
Богутин 11:09.
17
00:02:30,407 --> 00:02:32,875
Блудов Лазне 11:13.
18
00:02:38,567 --> 00:02:40,797
Блудов 11:20.
19
00:02:43,127 --> 00:02:46,358
Есеник, горы
Сентябрь 1989
20
00:02:46,447 --> 00:02:48,881
Шумперк 11:27.
21
00:03:32,647 --> 00:03:34,797
ГОСУДАРСТВЕННАЯ ГРАНИЦА
Проход запрещен!
22
00:03:59,447 --> 00:04:01,244
Стоять!
23
00:04:01,967 --> 00:04:03,764
Тревога!
24
00:04:11,767 --> 00:04:13,598
Не двигаться!
25
00:04:16,087 --> 00:04:17,884
Взять его!
26
00:04:54,927 --> 00:04:57,282
Люди приходят сюда
в основном с севера.
27
00:04:57,407 --> 00:04:59,318
Вооруженные мотыгами, пилами, топорами,
28
00:04:59,407 --> 00:05:01,921
а этого здесь, даже более чем достаточно.
29
00:05:01,967 --> 00:05:05,084
Они никогда не приходят по одному,
потому что это место поглощает одиночек.
30
00:05:05,167 --> 00:05:07,806
Но немой был один,
он вернулся, чтобы отомстить.

MediaInfo

General
Complete name : D:\КВН\Alois Nebel\Alois Nebel.DVDRip.avi
Format : AVI
Format/Info : Audio Video Interleave
File size : 1.49 GiB
Duration : 1h 21mn
Overall bit rate : 2 622 Kbps
Writing application : VirtualDubMod 1.5.10.2 (build 2540/release)
Writing library : VirtualDubMod build 2540/release
Video
ID : 0
Format : MPEG-4 Visual
Format profile : Advanced Simple@L5
Format settings, BVOP : 1
Format settings, QPel : No
Format settings, GMC : No warppoints
Format settings, Matrix : Default (MPEG)
Codec ID : XVID
Codec ID/Hint : XviD
Duration : 1h 21mn
Bit rate : 1 967 Kbps
Width : 720 pixels
Height : 400 pixels
Display aspect ratio : 16:9
Frame rate : 25.000 fps
Color space : YUV
Chroma subsampling : 4:2:0
Bit depth : 8 bits
Scan type : Progressive
Compression mode : Lossy
Bits/(Pixel*Frame) : 0.273
Stream size : 1.12 GiB (75%)
Writing library : XviD 1.2.1 (UTC 2008-12-04)
Audio #1
ID : 1
Format : AC-3
Format/Info : Audio Coding 3
Mode extension : CM (complete main)
Format settings, Endianness : Big
Codec ID : 2000
Duration : 1h 21mn
Bit rate mode : Constant
Bit rate : 192 Kbps
Channel(s) : 2 channels
Channel positions : Front: L R
Sampling rate : 48.0 KHz
Bit depth : 16 bits
Compression mode : Lossy
Stream size : 112 MiB (7%)
Alignment : Split accross interleaves
Interleave, duration : 40 ms (1.00 video frame)
Interleave, preload duration : 500 ms
Audio #2
ID : 2
Format : AC-3
Format/Info : Audio Coding 3
Mode extension : CM (complete main)
Format settings, Endianness : Big
Codec ID : 2000
Duration : 1h 21mn
Bit rate mode : Constant
Bit rate : 448 Kbps
Channel(s) : 6 channels
Channel positions : Front: L C R, Side: L R, LFE
Sampling rate : 48.0 KHz
Bit depth : 16 bits
Compression mode : Lossy
Stream size : 260 MiB (17%)
Alignment : Split accross interleaves
Interleave, duration : 40 ms (1.00 video frame)
Interleave, preload duration : 500 ms

Скриншот c названием фильма

Скриншоты





Показать сообщения:    

Текущее время: 04-Дек 13:17

Часовой пояс: UTC + 3


Вы не можете начинать темы
Вы не можете отвечать на сообщения
Вы не можете редактировать свои сообщения
Вы не можете удалять свои сообщения
Вы не можете голосовать в опросах
Вы не можете прикреплять файлы к сообщениям
Вы не можете скачивать файлы