Я – дочь пережившего Холокост / I Was a Child of Holocaust Survivors / J’etais une infant de survivants de l’Holocauste (Энн Мари Флеминг / Ann Marie Fleming) [2010, Канада, драма, анимация, короткий метр, DVB] Original (Fre) + Sub (ru hard)


 

[Цитировать]

Я – дочь пережившего Холокост
I Was a Child of Holocaust Survivors / J'étais une enfant de survivants de l'Holocauste- Страна: Канада
Жанр: драма, анимация, короткий метр
Год выпуска: 2010
Продолжительность: 00:15:00
Перевод: Субтитры (перевод О. Першиной, Éclair Group)
Cубтитры: русские
Оригинальная аудиодорожка: французский
Режиссер: Энн Мари Флеминг / Ann Marie Fleming
В ролях: Эллен Дэвид / Ellen David (narrator)
Описание: Фильм посвящен Бернис Айзенштайн / Bernice Eisenstein, написавшей иллюстрированную автобиографическую книгу "J'étais une enfant de survivants de l'Holocauste" (2006), по которой снят этот светлый и грустный фильм. Используя целительную силу юмора, он исследует табу послевоенных времен – последствия Холокоста – преследования и уничтожения европейских евреев нацистской Германией – что приводит к более универсальному пониманию человеческого опыта.
Доп. информация: Собственная запись со спутника (канал TV5MONDE, пакет НТВ+).
Награды: награда за лучший анимационный фильм Reel to Real International Film Festival for Youth and Families (Vancouver, Canada) 2011; специальный почетный приз жюри секции короткометражных фильмов Hong Kong International Film Festival 2011; 2 номинации Leo Awards 2011 (лучший режиссер анимационного фильма; лучший сценарий анимационного фильма).
Информация: http://www.imdb.com/title/tt1825004/
Сэмпл: http://multi-up.com/745364
Качество видео: DVB
Формат видео: MPG
Видео: MPEG Video 2, 720x576@1024x576 (16:9), 25 fps, ~2648 kbps avg
Аудио: 48 kHz, MPEG Audio 2, 2 ch, ~192.00 kbps avg
Формат субтитров: hardsub (неотключаемые)

MediaInfo

Полное имя : H:\My Torrents\[apreder]MINI_MOVIE_008\[apreder]MM_J’etais_une_infant_de_survivants_de_l’holocauste(2010)DVB.mpgФормат : MPEG-PSРазмер файла : 311 МбайтПродолжительность : 15 м.Режим общего битрейта : ПеременныйОбщий поток : 2898 Кбит/сек
ВидеоИдентификатор : 224 (0xE0)Формат : MPEG VideoВерсия формата : Version 2Профиль формата : Main@MainПараметр BVOP формата : ДаПараметр матрицы формата : ВыборочнаяПродолжительность : 15 м.Вид битрейта : ПеременныйБитрейт : 2648 Кбит/секМаксимальный битрейт : 15,0 Мбит/секШирина : 720 пикселейВысота : 576 пикселейСоотношение сторон : 16:9Частота кадров : 25,000 кадров/секСтандарт вещания : PALЦветовое пространство : YUVСубдискретизация насыщенности : 4:2:0Битовая глубина : 8 битМетод сжатия : С потерямиБит/(Пиксели*Кадры) : 0.255Размер потока : 284 Мбайт (91%)
АудиоИдентификатор : 192 (0xC0)Формат : MPEG AudioВерсия формата : Version 1Профиль формата : Layer 2Продолжительность : 15 м.Вид битрейта : ПостоянныйБитрейт : 192 Кбит/секКаналы : 2 каналаЧастота : 48,0 КГцМетод сжатия : С потерямиЗадержка видео : -615 мс.Размер потока : 20,6 Мбайт (7%)

Скриншот c названием фильма

Скриншоты


Скриншоты анаморфированные


-316/298√



Показать сообщения:    

Текущее время: 10-Дек 19:37

Часовой пояс: UTC + 3


Вы не можете начинать темы
Вы не можете отвечать на сообщения
Вы не можете редактировать свои сообщения
Вы не можете удалять свои сообщения
Вы не можете голосовать в опросах
Вы не можете прикреплять файлы к сообщениям
Вы не можете скачивать файлы