Арабеск / The Arabesque (Тетсумаса Сайто / Tetsumasa Saito) [2006, Япония, анимация, короткий метр, DVDRip]


 

[Цитировать]

Арабеск
The Arabesque- Страна: Япония
Жанр: анимация, короткий метр
Год выпуска: 2006
Продолжительность: 00:02:14
Перевод: Не требуется
Cубтитры: нет
Оригинальная аудиодорожка: музыкальное сопровождение
Режиссер: Тетсумаса Сайто / Tetsumasa Saito
В ролях: анимация
Описание: Дебютная работа молодого японского художника-аниматора Тетсумаса Сайто посвящена четырем основным видам балетной позы "арабеск" – одной из основных поз современного классического танца.-Фильмы Тетсумаса Сайто-Сэмпл: http://multi-up.com/731035
Качество видео: DVDRip
Формат видео: AVI
Видео: 640x480 (1.33:1), 23.976 fps, XviD build 50 ~912 kbps avg, 0.12 bit/pixel
Аудио: 48 kHz, MPEG Layer 3, 2 ch, ~192.00 kbps avg

MediaInfo

Полное имя : H:\My Torrents\[apreder]MINI_MOVIE_008\[apreder]MM_The_Arabesque(2006)DVDRip.aviФормат : AVIФормат/Информация : Audio Video InterleaveРазмер файла : 17,9 МбайтПродолжительность : 2 м. 14 с.Общий поток : 1118 Кбит/секПрограмма кодирования : MEncoder SVN-r30881(20100311-gcc4.3.3)Библиотека кодирования : MPlayer
ВидеоИдентификатор : 0Формат : MPEG-4 VisualПрофиль формата : Advanced Simple@L5Параметр BVOP формата : 2Параметр QPel формата : НетПараметр GMC формата : Без точки переходаПараметр матрицы формата : Default (H.263)Идентификатор кодека : XVIDИдентификатор кодека/Подсказка : XviDПродолжительность : 2 м. 14 с.Битрейт : 914 Кбит/секШирина : 640 пикселейВысота : 480 пикселейСоотношение сторон : 3:2Соотношение сторон в оригинале : 4:3Частота кадров : 23,976 кадра/секЦветовое пространство : YUVСубдискретизация насыщенности : 4:2:0Битовая глубина : 8 битТип развёртки : ПрогрессивнаяМетод сжатия : С потерямиБит/(Пиксели*Кадры) : 0.124Размер потока : 14,6 Мбайт (82%)Библиотека кодирования : XviD 1.2.1 (UTC 2008-12-04)
АудиоИдентификатор : 1Формат : MPEG AudioВерсия формата : Version 1Профиль формата : Layer 3Режим : Joint stereoРасширение режима : MS StereoИдентификатор кодека : 55Идентификатор кодека/Подсказка : MP3Продолжительность : 2 м. 14 с.Вид битрейта : ПостоянныйБитрейт : 192 Кбит/секКаналы : 2 каналаЧастота : 48,0 КГцМетод сжатия : С потерямиЗадержка видео : 42 мс.Размер потока : 3,07 Мбайт (17%)Выравнивание : Соединение по промежуткамПродолжительность промежутка : 24 мс. (0,58 видеокадр)Время предзагрузки промежутка : 504 мс.

Скриншот c названием фильма

Скриншоты

Скриншоты - резерв

-258/240√



Показать сообщения:    

Текущее время: 05-Дек 21:40

Часовой пояс: UTC + 3


Вы не можете начинать темы
Вы не можете отвечать на сообщения
Вы не можете редактировать свои сообщения
Вы не можете удалять свои сообщения
Вы не можете голосовать в опросах
Вы не можете прикреплять файлы к сообщениям
Вы не можете скачивать файлы