Нирвана / Nirvana (Тетсумаса Сайто / Tetsumasa Saito) [2008, Япония, психоделическая анимация, короткий метр, DVDRip]


 

[Цитировать]

Нирвана
Nirvana- Страна: Япония
Жанр: психоделическая анимация, короткий метр
Год выпуска: 2008
Продолжительность: 00:02:40
Перевод: Не требуется
Cубтитры: нет
Оригинальная аудиодорожка: музыкальное сопровождение
Режиссер: Тетсумаса Сайто / Tetsumasa Saito
В ролях: анимация
Описание: Молодой японский художник-аниматор Тетсумаса Сайто работает в манере имитации шелкографии, оживляя образы единения с природой с точки зрения буддийской философии. В этом фильме он использует стилизацию так называемых "бабочек" или чернильных пятен Роршаха.
Нирвана, Духовное Совершенство, Освобождение (от кармических пут материального мира) — эти слова обозначают одно и то же: Слияние развитого индивидуального сознания человека с Сознанием, обитающим в высших пространственных мерностях.
Чернильные пятна Роршаха - это один из тестов, применяемых для исследования. Изучая самообладание, понимаемое в основном как господство над эмоциями, Роршах использовал чернильные кляксы разных цветов и разной насыщенности серого и черного, чтобы ввести факторы, обладающие эмоциональным воздействием. Взаимодействие интеллектуального контроля и возникающей эмоции определяет то, что испытуемый видит в кляксе. Значимая информация о потребностях личности, о том, что делает человека счастливым или печальным, что волнует его, а что он вынужден подавлять и переводить в форму подсознательных фантазий, может быть извлечена из содержания или "сюжета" ассоциаций, вызываемых чернильными пятнами.-Фильмы Тетсумаса Сайто-Сэмпл: http://multi-up.com/731010
Качество видео: DVDRip
Формат видео: AVI
Видео: XviD, 720x400 (1.80:1), 23.976 fps, ATI YVU12 4:2:0 Planar ~2143 kbps avg, 0.31 bit/pixel
Аудио: 48 kHz, MPEG Layer 3, 2 ch, ~192.00 kbps avg

MediaInfo

Полное имя : H:\My Torrents\[apreder]MINI_MOVIE_008\[apreder]Nirvana(2008)DVDRip.aviФормат : AVIФормат/Информация : Audio Video InterleaveРазмер файла : 45,0 МбайтПродолжительность : 2 м. 40 с.Общий поток : 2345 Кбит/секПрограмма кодирования : VirtualDubMod 1.5.10.3 | www.virtualdub-fr.org || (build 2550/release)Библиотека кодирования : VirtualDubMod build 2550/release
ВидеоИдентификатор : 0Формат : MPEG-4 VisualПрофиль формата : Advanced Simple@L5Параметр BVOP формата : 2Параметр QPel формата : НетПараметр GMC формата : Без точки переходаПараметр матрицы формата : Default (H.263)Режим смешивания : Сжатый битовый потокИдентификатор кодека : XVIDИдентификатор кодека/Подсказка : XviDПродолжительность : 2 м. 40 с.Битрейт : 2143 Кбит/секШирина : 720 пикселейВысота : 400 пикселейСоотношение сторон : 3:2Соотношение сторон в оригинале : 16:9Частота кадров : 23,976 кадра/секЦветовое пространство : YUVСубдискретизация насыщенности : 4:2:0Битовая глубина : 8 битТип развёртки : ПрогрессивнаяМетод сжатия : С потерямиБит/(Пиксели*Кадры) : 0.310Размер потока : 41,1 Мбайт (91%)Библиотека кодирования : XviD 64
АудиоИдентификатор : 1Формат : MPEG AudioВерсия формата : Version 1Профиль формата : Layer 3Режим : Joint stereoРасширение режима : MS StereoИдентификатор кодека : 55Идентификатор кодека/Подсказка : MP3Продолжительность : 2 м. 40 с.Вид битрейта : ПостоянныйБитрейт : 192 Кбит/секКаналы : 2 каналаЧастота : 48,0 КГцМетод сжатия : С потерямиРазмер потока : 3,68 Мбайт (8%)Выравнивание : Разделение по промежуткамПродолжительность промежутка : 42 мс. (1,00 видеокадр)Время предзагрузки промежутка : 500 мс.Библиотека кодирования : LAME3.98ЄЄЄЄЄЄЄЄЄЄЄЄ

Скриншот c названием фильма

Скриншоты

Скриншоты - резерв

-257/239√



Показать сообщения:    

Текущее время: 05-Дек 07:24

Часовой пояс: UTC + 3


Вы не можете начинать темы
Вы не можете отвечать на сообщения
Вы не можете редактировать свои сообщения
Вы не можете удалять свои сообщения
Вы не можете голосовать в опросах
Вы не можете прикреплять файлы к сообщениям
Вы не можете скачивать файлы