Винсент / Vincent (Тим Бертон / Tim Burton) [1982, короткометражный анимационный фильм, DVDRip] VO + Sub (rus, eng)


 

[Цитировать]

Винсент : Vincent Год выпуска: 1982
Страна: США
Жанр: короткометражный анимационный фильм : animated short film
Продолжительность: 00:05:56
Перевод: Любительский (одноголосый закадровый)
русские субтитры: есть- Режиссёр: Тим Бертон : Tim Burton
Текст читает: Винсент Прайс : Vincent Price- Описание: Это грустный рассказ о Винсенте Маллое, мальчике из пригорода, который хочет быть в точности как его кумир Винсент Прайс, актер, который снимался в экранизациях Эдгара По.-Доп.информация: Винсент был первым фильмом Бартона, который действительно был выпущен, хоть и ограниченным тиражом. Черно-белый короткометражный мультфильм, снятый с использованием технологии покадровой анимации, основывается на поэме, которую Бартон написал сам. Это был глубоко личный фильм для юного Бартона. Он отметил начало его совместной деятельности с двумя людьми, которые в дальнейшем очень сильно повлияют на его творчество. Рик Хейнрихс (Rick Heinrichs), который будет заниматься художественным оформлением нескольких более поздних фильмов Бартона, был продюсером и сделал дополнительные эскизы. Еще важнее то, что очвучивал работу сам Винсент Прайс.
Прайс был кумиром Бартона с самого детства. Поэтому использование его запоминающегося голоса в фильме вызывало трепет у юного режиссера. Игра звезды классических фильмов ужасов также усилила основную тему фильма, рассказывающую о том что фантазии о монстрах и сумасшедших ученых могут стать для детей важнее их собственных повседневных жизней. Как позднее сказал Бартон: “Этот опыт был, вероятно, из тех, которые больше всего повлияли на меня за всю мою жизнь.”
Дисней показывал Винсента в небольшом числе кинотеатров. Он не был уверен в том как представлять людям психопатичную короткометражку. Тем не менее, кто-то видел его тогда. Он также показывался на фестивалях и, в конце концов, действовал как визитная карточка Бартона в Голливуде.
-
- нет возрастных ограничений.- Качество: DVDRip
Формат: AVI
Видео кодек: XviD
Аудио кодек: MP3 : AC3
Видео: 720x544 , (1.32:1), 25 fps, XviD build 50 ~2120 kbps avg, 0.22 bit/pixel
Аудио #1: 48 kHz, MPEG Layer 3, 2 ch, ~192 kbps avg (Д.Стасюк)
Аудио #2: 48 kHz, AC3 Dolby Digital, 2/0 (L,R) ch, ~192 kbps (ENG)
субтитры: русские (оригинал), русские (Аристарх К.), русские (Duna), русские, английские-

Знаете ли вы, что...

Как свидетельствуют фотографии того времени, главные герои и декорации мультфильма были цветными. Но в итоге было решено сделать ленту в черно-белой палитре.
Винсент Прайс объявил, что это - его лучшая работа в кино.
Кошка, пробегающая по стене в титрах фильма, затем появляется и в других работах Бёртона: «Кошмар перед Рождеством», «Труп Невесты».
19 октября 2007 мультфильм должен был быть перевыпущен в 3D формате. Однако по причинам, не подвергшимся оглашению, студия Диснея в очередной раз отложила прокат «Винсента».

AviInfo

File: Vincent.1982.DVDRip.avi
Filesize: 107.02 Mb ( 112 222 208 bytes )
Play length: 00:05:56.279 (8907 frames)
Subtitles: Rus (original), Rus (Duna), Eng, Rus, Rus (Аристарх К.) (SubRip format)
Video: 720x544 (1.32:1), 25 fps, XviD build 50 ~2120 kbps avg, 0.22 bit/pixel
Audio #1: 48 kHz, MPEG Layer 3, 2 ch, ~192 kbps avg
Audio #2: 48 kHz, AC3 Dolby Digital, 2/0 (L,R) ch, ~192 kbps

MediaInfo

Общее
Полное имя : F:\Винсент\Vincent.1982.DVDRip.VO+SUB\Vincent.1982.DVDRip.avi
Формат : AVI
Формат/Информация : Audio Video Interleave
Размер файла : 107 Мбайт
Продолжительность : 5 м. 56 с.
Общий поток : 2520 Кбит/сек
Программа кодирования : VirtualDubMod 1.5.10.3 (build 2550/release)
Библиотека кодирования : VirtualDubMod build 2550/release
Видео
Идентификатор : 0
Формат : MPEG-4 Visual
Профиль формата : Advanced Simple@L5
Параметр BVOP формата : 2
Параметр QPel формата : Нет
Параметр GMC формата : Без точки перехода
Параметр матрицы формата : Default (MPEG)
Идентификатор кодека : XVID
Идентификатор кодека/Подсказка : XviD
Продолжительность : 5 м. 56 с.
Битрейт : 2121 Кбит/сек
Ширина : 720 пикселей
Высота : 544 пикселя
Соотношение сторон : 4:3
Частота кадров : 25,000 кадров/сек
Цветовое пространство : YUV
Субдискретизация насыщенности : 4:2:0
Битовая глубина : 8 бит
Тип развёртки : Прогрессивная
Метод сжатия : С потерями
Бит/(Пиксели*Кадры) : 0.217
Размер потока : 90,1 Мбайт (84%)
Библиотека кодирования : XviD 1.2.1 (UTC 2008-12-04)
Аудио #1
Идентификатор : 1
Формат : MPEG Audio
Версия формата : Version 1
Профиль формата : Layer 3
Режим : Joint stereo
Расширение режима : MS Stereo
Идентификатор кодека : 55
Идентификатор кодека/Подсказка : MP3
Продолжительность : 5 м. 56 с.
Вид битрейта : Постоянный
Битрейт : 192 Кбит/сек
Каналы : 2 канала
Частота : 48,0 КГц
Метод сжатия : С потерями
Размер потока : 8,15 Мбайт (8%)
Выравнивание : Соединение по промежуткам
Продолжительность промежутка : 40 мс. (1,00 видеокадр)
Время предзагрузки промежутка : 504 мс.
Библиотека кодирования : LAME3.99r
Настройки программы : -m j -V 4 -q 3 -lowpass 18.6 -b 192
Аудио #2
Идентификатор : 2
Формат : AC-3
Формат/Информация : Audio Coding 3
Расширение режима : CM (complete main)
Идентификатор кодека : 2000
Продолжительность : 5 м. 56 с.
Вид битрейта : Постоянный
Битрейт : 192 Кбит/сек
Каналы : 2 канала
Расположение каналов : Front: L R
Частота : 48,0 КГц
Битовая глубина : 16 бит
Метод сжатия : С потерями
Размер потока : 8,15 Мбайт (8%)
Выравнивание : Разделение по промежуткам
Продолжительность промежутка : 40 мс. (1,00 видеокадр)
Время предзагрузки промежутка : 500 мс.
Общее
Полное имя : F:\Винсент\Vincent.1982.DVDRip.VO+SUB\Vincent.1982.DVDRip.Rus (original).srt
Формат : SubRip
Размер файла : 5,50 Кбайт
Текст
Формат : SubRip
Метод сжатия : Без потерь
Общее
Полное имя : F:\Винсент\Vincent.1982.DVDRip.VO+SUB\Vincent.1982.DVDRip.Rus (Duna).srt
Формат : SubRip
Размер файла : 5,08 Кбайт
Текст
Формат : SubRip
Метод сжатия : Без потерь
Общее
Полное имя : F:\Винсент\Vincent.1982.DVDRip.VO+SUB\Vincent.1982.DVDRip.Eng.srt
Размер файла : 5,07 Кбайт
Общее
Полное имя : F:\Винсент\Vincent.1982.DVDRip.VO+SUB\Vincent.1982.DVDRip.Rus.srt
Размер файла : 4,67 Кбайт
Общее
Полное имя : F:\Винсент\Vincent.1982.DVDRip.VO+SUB\Vincent.1982.DVDRip.Rus (Аристарх К.).srt
Формат : SubRip
Размер файла : 4,47 Кбайт
Текст
Формат : SubRip
Метод сжатия : Без потерь
Благодарность:
- большое спасибо за озвучку Дмитрию Стасюку;
- большое спасибо за субтитры Аристарху К.;
- большое спасибо за субтитры Duna; Не забываем оставлять комментарии к релизу, мне интересно Ваше мнение!



Показать сообщения:    

Текущее время: 11-Дек 07:15

Часовой пояс: UTC + 3


Вы не можете начинать темы
Вы не можете отвечать на сообщения
Вы не можете редактировать свои сообщения
Вы не можете удалять свои сообщения
Вы не можете голосовать в опросах
Вы не можете прикреплять файлы к сообщениям
Вы не можете скачивать файлы