Дом из маленьких кубиков / La Maison en Petits Cubes (Кунио Като / Kunio Katô) [2008г., короткометражный анимационный фильм, DVDRip-AVC]


 

[Цитировать]

Дом из маленьких кубиков
La Maison en Petits Cubes
Год выпуска: 2008
Страна: Япония
Жанр: короткометражный анимационный фильм : animated short film
Продолжительность: 00:12:06
Перевод: не требуется
субтитры: отсутствуют- Режиссёр: Кунио Като : Kunio Katô- Описание: Главный герой «Дома из маленьких кубиков» — одинокий старик. Из-за того, что уровень воды вокруг его дома поднимается, вдовец вынужден постоянно строить себе новые дома, один поверх другого. Однажды он ныряет в воду, чтобы найти курительную трубку на нижних этажах, каждый из которых хранит частичку его воспоминаний. Работа японского аниматора Кунио Като — это размышление о памяти, семье и одиночестве.-
получил Оскар 2009!- Качество: DVDRip-AVC|
Формат: MKV
Видео кодек: AVC
Аудио кодек: AC3
Видео: 720x400 , (1.80:1), 23,976 fps, ~1 594 kbps avg, 0.231 bit/pixel
Аудио #1: 48 kHz, AC3 Dolby Digital, 2/0 (L,R) ch, ~224 kbps
Аудио #2: 48 kHz, AC3 Dolby Digital, 2/0 (L,R) ch, ~224 kbps (JAP)-

MediaInfoLog

x264 [info]: frame I:129 Avg QP:10.31 size:112044
x264 [info]: frame P:4194 Avg QP:14.87 size: 24447
x264 [info]: frame B:13094 Avg QP:20.84 size: 2394
x264 [info]: consecutive B-frames: 3.5% 5.3% 5.9% 20.7% 33.9% 19.2% 7.1% 2.3% 2.1%
x264 [info]: mb I I16..4: 1.2% 87.0% 11.8%
x264 [info]: mb P I16..4: 0.5% 5.3% 0.4% P16..4: 67.0% 7.4% 6.9% 1.2% 0.3% skip:11.0%
x264 [info]: mb B I16..4: 0.0% 0.4% 0.1% B16..8: 18.6% 1.9% 0.8% direct: 4.7% skip:73.5% L0:34.8% L1:51.4% BI:13.9%
x264 [info]: 8x8 transform intra:84.8% inter:53.9%
x264 [info]: coded y,uvDC,uvAC intra: 93.5% 93.1% 86.7% inter: 20.9% 23.4% 14.0%
x264 [info]: i16 v,h,dc,p: 54% 21% 9% 15%
x264 [info]: i8 v,h,dc,ddl,ddr,vr,hd,vl,hu: 15% 12% 15% 8% 10% 8% 8% 11% 13%
x264 [info]: i4 v,h,dc,ddl,ddr,vr,hd,vl,hu: 15% 10% 8% 8% 13% 11% 10% 11% 13%
x264 [info]: i8c dc,h,v,p: 51% 17% 17% 15%
x264 [info]: Weighted P-Frames: Y:9.2% UV:7.4%
x264 [info]: ref P L0: 53.3% 4.4% 20.3% 4.4% 6.1% 3.8% 4.5% 2.7% 0.5% 0.0%
x264 [info]: ref B L0: 73.4% 12.3% 5.0% 3.5% 3.3% 1.6% 1.0%
x264 [info]: ref B L1: 92.8% 7.2%
Общее
Уникальный идентификатор : 214589798456598039198422801239259309382 (0xA1707DEA962F84CFAA6F0CBDE45D6546)
Полное имя : D:\Дом из маленьких кубиков\La Maison en Petits Cubes.2008.DVDRip-AVC.mkv
Формат : Matroska
Версия формата : Version 2
Размер файла : 180 Мбайт
Продолжительность : 12 м.
Общий поток : 2083 Кбит/сек
Дата кодирования : UTC 2012-07-03 08:03:49
Программа кодирования : mkvmerge v5.5.0 ('Healer') built on Apr 24 2012 23:47:03
Библиотека кодирования : libebml v1.2.3 + libmatroska v1.3.0
Видео
Идентификатор : 1
Формат : AVC
Формат/Информация : Advanced Video Codec
Профиль формата : High@L4.1
Параметр CABAC формата : Да
Параметр ReFrames формата : 8 кадров
Идентификатор кодека : V_MPEG4/ISO/AVC
Продолжительность : 12 м.
Битрейт : 1594 Кбит/сек
Ширина : 720 пикселей
Высота : 400 пикселей
Соотношение сторон : 16:9
Частота кадров : 23,976 кадра/сек
Цветовое пространство : YUV
Субдискретизация насыщенности : 4:2:0
Битовая глубина : 8 бит
Тип развёртки : Прогрессивная
Бит/(Пиксели*Кадры) : 0.231
Размер потока : 138 Мбайт (77%)
Библиотека кодирования : x264 core 119 r2106 07efeb4
Настройки программы : cabac=1 / ref=8 / deblock=1:-1:-1 / analyse=0x3:0x133 / me=umh / subme=9 / psy=1 / psy_rd=0.40:0.00 / mixed_ref=0 / me_range=16 / chroma_me=1 / trellis=2 / 8x8dct=1 / cqm=0 / deadzone=21,11 / fast_pskip=0 / chroma_qp_offset=-2 / threads=3 / sliced_threads=0 / nr=0 / decimate=1 / interlaced=0 / bluray_compat=0 / constrained_intra=0 / bframes=8 / b_pyramid=2 / b_adapt=2 / b_bias=0 / direct=1 / weightb=1 / open_gop=0 / weightp=2 / keyint=240 / keyint_min=25 / scenecut=40 / intra_refresh=0 / rc_lookahead=240 / rc=crf / mbtree=1 / crf=16.0 / qcomp=0.60 / qpmin=10 / qpmax=69 / qpstep=4 / ip_ratio=2.20 / aq=1:0.60
Default : Да
Forced : Нет
Аудио #1
Идентификатор : 2
Формат : AC-3
Формат/Информация : Audio Coding 3
Расширение режима : CM (complete main)
Параметр Endianness формата : Big
Идентификатор кодека : A_AC3
Продолжительность : 12 м.
Вид битрейта : Постоянный
Битрейт : 224 Кбит/сек
Каналы : 2 канала
Расположение каналов : Front: L R
Частота : 48,0 КГц
Битовая глубина : 16 бит
Метод сжатия : С потерями
Размер потока : 19,4 Мбайт (11%)
Default : Да
Forced : Нет
Аудио #2
Идентификатор : 3
Формат : AC-3
Формат/Информация : Audio Coding 3
Расширение режима : CM (complete main)
Параметр Endianness формата : Big
Идентификатор кодека : A_AC3
Продолжительность : 12 м.
Вид битрейта : Постоянный
Битрейт : 224 Кбит/сек
Каналы : 2 канала
Расположение каналов : Front: L R
Частота : 48,0 КГц
Битовая глубина : 16 бит
Метод сжатия : С потерями
Размер потока : 19,4 Мбайт (11%)
Заголовок : JAP
Язык : Japanese
Default : Нет
Forced : Нет



Показать сообщения:    

Текущее время: 07-Дек 00:47

Часовой пояс: UTC + 3


Вы не можете начинать темы
Вы не можете отвечать на сообщения
Вы не можете редактировать свои сообщения
Вы не можете удалять свои сообщения
Вы не можете голосовать в опросах
Вы не можете прикреплять файлы к сообщениям
Вы не можете скачивать файлы