Сансара / Samsara (Тетсумаса Сайто / Tetsumasa Saito) [2007, Япония, психоделическая анимация, короткий метр, DVDRip]


 

[Цитировать]

Сансара
Samsara- Страна: Япония
Жанр: психоделическая анимация, короткий метр
Год выпуска: 2007
Продолжительность: 00:03:54
Перевод: Не требуется
Cубтитры: нет
Оригинальная аудиодорожка: музыкальное сопровождение
Режиссер: Тетсумаса Сайто / Tetsumasa Saito
В ролях: анимация
Описание: Молодой японский художник-аниматор Тетсумаса Сайто работает в манере имитации шелкографии, оживляя образы единения с природой с точки зрения буддийской философии.
Saṃsāra - (с санскрита "переход, череда перерождений, жизнь") - круговорот рождения и смерти в мирах, ограниченных кармой, одно из основных понятий в индийской философии: душа, тонущая в "океане сансары", стремится к освобождению и избавлению от результатов своих прошлых действий, которые являются частью "сети сансары". (wikipedia)
Участник Taketoyo animation film festival (Aichi, Japan) 2008.-Фильмы Тетсумаса Сайто-Сэмпл: http://multi-up.com/721294
Качество видео: DVDRip
Формат видео: AVI
Видео: 640x480 (1.33:1), 23.976 fps, XviD build 50 ~1191 kbps avg, 0.16 bit/pixel
Аудио: 48 kHz, MPEG Layer 3, 2 ch, ~192.00 kbps avg

MediaInfo

Полное имя : H:\My Torrents\[apreder]MM_Samsara(2007)DVDRip.aviФормат : AVIФормат/Информация : Audio Video InterleaveРазмер файла : 39,1 МбайтПродолжительность : 3 м. 54 с.Общий поток : 1396 Кбит/секПрограмма кодирования : MEncoder SVN-r30881(20100311-gcc4.3.3)Библиотека кодирования : MPlayer
ВидеоИдентификатор : 0Формат : MPEG-4 VisualПрофиль формата : Advanced Simple@L5Параметр BVOP формата : 2Параметр QPel формата : НетПараметр GMC формата : Без точки переходаПараметр матрицы формата : Default (H.263)Идентификатор кодека : XVIDИдентификатор кодека/Подсказка : XviDПродолжительность : 3 м. 54 с.Битрейт : 1192 Кбит/секШирина : 640 пикселейВысота : 480 пикселейСоотношение сторон : 4:3Частота кадров : 23,976 кадра/секЦветовое пространство : YUVСубдискретизация насыщенности : 4:2:0Битовая глубина : 8 битТип развёртки : ПрогрессивнаяМетод сжатия : С потерямиБит/(Пиксели*Кадры) : 0.162Размер потока : 33,3 Мбайт (85%)Библиотека кодирования : XviD 1.2.1 (UTC 2008-12-04)
АудиоИдентификатор : 1Формат : MPEG AudioВерсия формата : Version 1Профиль формата : Layer 3Режим : Joint stereoРасширение режима : MS StereoИдентификатор кодека : 55Идентификатор кодека/Подсказка : MP3Продолжительность : 3 м. 54 с.Вид битрейта : ПостоянныйБитрейт : 192 Кбит/секКаналы : 2 каналаЧастота : 48,0 КГцМетод сжатия : С потерямиЗадержка видео : 42 мс.Размер потока : 5,37 Мбайт (14%)Выравнивание : Соединение по промежуткамПродолжительность промежутка : 24 мс. (0,58 видеокадр)Время предзагрузки промежутка : 504 мс.Библиотека кодирования : LAME3.98

Скриншоты

-217/199√



Показать сообщения:    

Текущее время: 10-Дек 06:06

Часовой пояс: UTC + 3


Вы не можете начинать темы
Вы не можете отвечать на сообщения
Вы не можете редактировать свои сообщения
Вы не можете удалять свои сообщения
Вы не можете голосовать в опросах
Вы не можете прикреплять файлы к сообщениям
Вы не можете скачивать файлы