Мадам Тутли-Путли / Madame Tutli-Putli (Крис Лэвис / Chris Lavis, Мацек Щербовски / Maciek Szczerbowski) [2007 г., Канада, мультфильм, короткометражка, фэнтези, WEB-DLRip] Original (ENG) + Sub (RUS forced)


 

[Цитировать]

Мадам Тутли-Путли / Madame Tutli-Putli-Год выпуска: 2007
Страна: Канада-Жанр: мультфильм, короткометражка, фэнтези
Продолжительность: 00:17:17
Перевод: Не требуется
Субтитры: русские (форсированные, на надписи) [SRT] - отдельным файлом.-Режиссер: Крис Лэвис / Chris Lavis, Мацек Щербовски / Maciek Szczerbowski
Сценарий: Крис Лэвис / Chris Lavis, Мацек Щербовски / Maciek Szczerbowski, Масек Томашевски / Maciek Tomaszewski
Продюсер: Марси Пейдж / Marcy Page
Композитор: Дэвид Брайант / David Bryant, Жан-Фредерик Мессье / Jean-Frederic Messier-В ролях: Лори Мехер (Madame Tutli Putli)-Мировая премьера: 19 мая 2007-Описание:
История рассказывает о пугающем ночном путешествии героини на поезде, летящем через темный лес.-С каким багажом подойдем мы к границе с вечностью, когда пробьет наш час? С чем придется нам столкнуться пред тем, как мы предстанем перед великим творцом? Мадам Тутли-Путли садится в поезд, отягощенная своим прошлым. День сменяет ночь и начинается захватывающее метафизическое приключение, где ей предстоит противостоять своим внутренним демонами.

Альтернативное описание №1:

Короткометражный мультфильм — первая номинация на «Оскар» канадских режиссеров Криса Лэвиса и Мацека Щербовски. «Мадам Тутли-Путли» — их дебютная лента. Ранее Национальным кинокомитетом Канады картина была признана лучшим короткометражным фильмом, получила главный приз Международного фестиваля короткометражек в Торонто и получила ещё более десятка призов на различных кинофестивалях.
Режиссеры картины больше месяца путешествовали на поездах по Канаде, собирая дорожные истории, а над самой картиной трудились более пяти лет.
Сюжет мультфильма таков: молодая женщина с огромным багажом (в прямом и переносном смысле) садится на Ночной поезд и отправляется в путешествие по выдуманному ею миру, сопровождаемая призраками из ее прошлого. Когда солнце клонится к закату, это приключение становится совершенно сюрреалистичным.
Свою кукольную героиню создатели этого стильного, красивого и абсурдного кино с помощью непонятного фокуса снабдили совершенно живыми глазами. Эффект получился настолько удивительный, что секрет глаз мадам Тутли-Путли вполне может претендовать на звание анимационной загадки года. Сами же режиссеры раскрывать секреты ремесла не торопятся и на вопросы отвечают уклончиво: «Черная магия — и немного компьютера».

Альтернативное описание №2:

Совершенно завораживающий мультфильм «Мадам Тутли-Путли» (Madame Tutli-Putli) был выпущенн в 2007 году канадскими аниматорами. История рассказывает о пугающем ночном путешествии героини на поезде, летящем через темный лес. Отличная режиссура, постановка кадра, отлично прописанные персонажи и самое главное: очень необычная анимация. Авторы сумели‡наложить на кукол изображение реальных человеческих глаз. Причем сделали это настолько умело, что во время просмотра постоянно ловишь себя на мысли, не актриса ли это в гриме, имитирующем куклу. А макет поезда и предметы обстановки кажутся настоящими предметами, специально стилизованные под кукольные копии. На самом деле, все увиденное на экране — модели. Живые лишь глаза. Этот ход не только придал особенный шарм картинке, но и позволил точнее передавать эмоции. Отработка технологии и работа над анимацей заняла 5 лет.
- -Сэмпл Рип совместим с бытовыми DVD-проигрывателями.--Качество: WEB-DLRip
Формат: AVI
Видео кодек: XviD
Аудио кодек: AC3
Видео: XviD; 720х400 (1:1.8); ~1 342 Kbps; 23,976 fps; 0,194 bpp
Аудио: AC3; 48.0 KHz; 448 Kbps; CBR; 6 ch; 16 bit
Субтитры: Русские (форсированные) [.srt] - отдельным файлом.-

Скриншоты

Mediainfo

General
Complete name : \Madame_Tutli-Putli_(2007)\Madame_Tutli-Putli_(2007).WEB-DLRip.XviD.ac3-All.Films-RG.avi
Format : AVI
Format/Info : Audio Video Interleave
File size : 222 MiB
Duration : 17mn 17s
Overall bit rate : 1 799 Kbps
Movie name : Мадам Тутли-Путли / Madame Tutli-Putli (2007) WEB-DLRip [All.Films][RG]
Director : [rutracker.org]
Writing application : VirtualDubMod 1.5.10.3 | www.virtualdub-fr.org || (build 2550/release)
Video
ID : 0
Format : MPEG-4 Visual
Format profile : Advanced Simple@L5
Format settings, BVOP : 2
Format settings, QPel : No
Format settings, GMC : No warppoints
Format settings, Matrix : Custom
Codec ID : XVID
Codec ID/Hint : XviD
Duration : 17mn 17s
Bit rate : 1 342 Kbps
Width : 720 pixels
Height : 400 pixels
Display aspect ratio : 16:9
Frame rate : 23.976 fps
Color space : YUV
Chroma subsampling : 4:2:0
Bit depth : 8 bits
Scan type : Progressive
Compression mode : Lossy
Bits/(Pixel*Frame) : 0.194
Stream size : 166 MiB (75%)
Writing library : XviD 65
Audio
ID : 1
Format : AC-3
Format/Info : Audio Coding 3
Mode extension : CM (complete main)
Format settings, Endianness : Big
Codec ID : 2000
Duration : 17mn 15s
Bit rate mode : Constant
Bit rate : 448 Kbps
Channel(s) : 6 channels
Channel positions : Front: L C R, Side: L R, LFE
Sampling rate : 48.0 KHz
Bit depth : 16 bits
Compression mode : Lossy
Stream size : 55.3 MiB (25%)
Alignment : Split accross interleaves
Interleave, duration : 42 ms (1.00 video frame)
Interleave, preload duration : 500 ms
Другие раздачи
http://teatrix.ru/viewtopic.php?t=5132 (549 MB)
http://teatrix.ru/viewtopic.php?t=5113 (224 MB)
http://teatrix.ru/viewtopic.php?t=5110 (222 MB)



Показать сообщения:    

Текущее время: 05-Дек 11:31

Часовой пояс: UTC + 3


Вы не можете начинать темы
Вы не можете отвечать на сообщения
Вы не можете редактировать свои сообщения
Вы не можете удалять свои сообщения
Вы не можете голосовать в опросах
Вы не можете прикреплять файлы к сообщениям
Вы не можете скачивать файлы