Работа / El Empleo (Сантьяго Грассо / Santiago Grasso) [2008 г., короткометражный анимационный фильм, WEB-DL 1080p]


 

[Цитировать]

Работа : El Empleo Год выпуска: 2008
Страна: Аргентина
Жанр: короткометражный анимационный фильм : animated short film
Продолжительность: 00:07:09
Перевод: не требуется
субтитры: отсутствуют- студия: Opusbou
Режиссёр: Сантьяго Грассо : Santiago Grasso- Описание: Человек совершает свой обычный маршрут на работу, погруженный в мир, в котором использование людей в качетсве предметов - это часть повседневной жизни.
- Качество: WEB-DL 1080p
Формат: MKV
Видео кодек: VC-1
Аудио кодек: AC3
Видео: 1920x1080 , 25 fps, ~3 098 kbps avg, 0.060 bit/pixel
Аудио: 48.0 kHz, 2ch, ~384 kbps avg- -

MediaInfo

Общее
Уникальный идентификатор : 239571316100662343815489576569455695729 (0xB43BC1D48BE8E6298FD61008EE7ED771)
Полное имя : F:\Работа\El Empleo.2008.WEB-DL 1080p.mkv
Формат : Matroska
Версия формата : Version 2
Размер файла : 182 Мбайт
Продолжительность : 7 м. 9 с.
Общий поток : 3553 Кбит/сек
Дата кодирования : UTC 2012-06-04 15:37:53
Программа кодирования : mkvmerge v5.5.0 ('Healer') built on Apr 24 2012 23:47:03
Библиотека кодирования : libebml v1.2.3 + libmatroska v1.3.0
Видео
Идентификатор : 1
Формат : VC-1
Идентификатор кодека : WMV3
Идентификатор кодека/Информация : Windows Media Video 9
Идентификатор кодека/Подсказка : WMV3
Продолжительность : 7 м. 9 с.
Битрейт : 3098 Кбит/сек
Ширина : 1920 пикселей
Высота : 1080 пикселей
Соотношение сторон : 16:9
Режим частоты кадров : Постоянный
Частота кадров : 25,000 кадров/сек
Битовая глубина : 8 бит
Метод сжатия : С потерями
Бит/(Пиксели*Кадры) : 0.060
Размер потока : 159 Мбайт (87%)
Язык : English
Default : Нет
Forced : Нет
Аудио
Идентификатор : 2
Формат : AC-3
Формат/Информация : Audio Coding 3
Расширение режима : CM (complete main)
Идентификатор кодека : A_AC3
Продолжительность : 7 м. 9 с.
Вид битрейта : Постоянный
Битрейт : 384 Кбит/сек
Каналы : 2 канала
Расположение каналов : Front: L R
Частота : 48,0 КГц
Битовая глубина : 16 бит
Метод сжатия : С потерями
Размер потока : 19,7 Мбайт (11%)
Default : Да
Forced : Нет



Показать сообщения:    

Текущее время: 24-Янв 12:10

Часовой пояс: UTC + 3


Вы не можете начинать темы
Вы не можете отвечать на сообщения
Вы не можете редактировать свои сообщения
Вы не можете удалять свои сообщения
Вы не можете голосовать в опросах
Вы не можете прикреплять файлы к сообщениям
Вы не можете скачивать файлы