Мадам Тутли-Путли / Madame Tutli-Putli (Крис Лэвис / Chris Lavis, Мацек Щербовски / Maciek Szczerbowski) [2007 г., Канада, мультфильм, короткометражка, фэнтези, WEB-DLRip-AVC] Original (ENG) + Sub (RUS forced)


 

[Цитировать]

Мадам Тутли-Путли / Madame Tutli-Putli-Год выпуска: 2007
Страна: Канада-Жанр: мультфильм, короткометражка, фэнтези
Продолжительность: 00:17:17
Перевод: Не требуется
Субтитры: русские (отключаемые), на надписи.-Режиссер: Крис Лэвис / Chris Lavis, Мацек Щербовски / Maciek Szczerbowski
Сценарий: Крис Лэвис / Chris Lavis, Мацек Щербовски / Maciek Szczerbowski, Масек Томашевски / Maciek Tomaszewski
Продюсер: Марси Пейдж / Marcy Page
Композитор: Дэвид Брайант / David Bryant, Жан-Фредерик Мессье / Jean-Frederic Messier-В ролях: Лори Мехер (Madame Tutli Putli)-Мировая премьера: 19 мая 2007-Описание:
История рассказывает о пугающем ночном путешествии героини на поезде, летящем через темный лес.-С каким багажом подойдем мы к границе с вечностью, когда пробьет наш час? С чем придется нам столкнуться пред тем, как мы предстанем перед великим творцом? Мадам Тутли-Путли садится в поезд, отягощенная своим прошлым. День сменяет ночь и начинается захватывающее метафизическое приключение, где ей предстоит противостоять своим внутренним демонами.

Альтернативное описание №1:

Короткометражный мультфильм — первая номинация на «Оскар» канадских режиссеров Криса Лэвиса и Мацека Щербовски. «Мадам Тутли-Путли» — их дебютная лента. Ранее Национальным кинокомитетом Канады картина была признана лучшим короткометражным фильмом, получила главный приз Международного фестиваля короткометражек в Торонто и получила ещё более десятка призов на различных кинофестивалях.
Режиссеры картины больше месяца путешествовали на поездах по Канаде, собирая дорожные истории, а над самой картиной трудились более пяти лет.
Сюжет мультфильма таков: молодая женщина с огромным багажом (в прямом и переносном смысле) садится на Ночной поезд и отправляется в путешествие по выдуманному ею миру, сопровождаемая призраками из ее прошлого. Когда солнце клонится к закату, это приключение становится совершенно сюрреалистичным.
Свою кукольную героиню создатели этого стильного, красивого и абсурдного кино с помощью непонятного фокуса снабдили совершенно живыми глазами. Эффект получился настолько удивительный, что секрет глаз мадам Тутли-Путли вполне может претендовать на звание анимационной загадки года. Сами же режиссеры раскрывать секреты ремесла не торопятся и на вопросы отвечают уклончиво: «Черная магия — и немного компьютера».

Альтернативное описание №2:

Совершенно завораживающий мультфильм «Мадам Тутли-Путли» (Madame Tutli-Putli) был выпущенн в 2007 году канадскими аниматорами. История рассказывает о пугающем ночном путешествии героини на поезде, летящем через темный лес. Отличная режиссура, постановка кадра, отлично прописанные персонажи и самое главное: очень необычная анимация. Авторы сумели‡наложить на кукол изображение реальных человеческих глаз. Причем сделали это настолько умело, что во время просмотра постоянно ловишь себя на мысли, не актриса ли это в гриме, имитирующем куклу. А макет поезда и предметы обстановки кажутся настоящими предметами, специально стилизованные под кукольные копии. На самом деле, все увиденное на экране — модели. Живые лишь глаза. Этот ход не только придал особенный шарм картинке, но и позволил точнее передавать эмоции. Отработка технологии и работа над анимацей заняла 5 лет.
- -Сэмпл Рип НЕ совместим с бытовыми DVD-проигрывателями.--Качество: WEB-DLRip-AVC
Формат: MKV
Видео кодек: x264
Аудио кодек: AC3
Видео: AVC (x264); 1024x576 (16:9); 1325 Kbps; 23,976 fps; 0,094 bpp
Аудио: AC3; 448 Kbps; CBR; 6 ch; 16 bit
Субтитры: Russian (SRT), в контейнере.-

Mediainfo/loglog

x264.exe: --crf 21.0 --preset veryslow --tune film --level 4.1 --ref 15 --deblock -3:-2 --merange 32 --bframes 12 --no-dct-decimate --subme 11 --no-mbtree --sar 1:1 --output "S:\Temp_X\0405.264" "S:\Temp_X\0405.avs"
avs [info]: 1024x576p 1:1 @ 2997/125 fps (cfr)
x264 [info]: using SAR=1/1
x264 [warning]: DPB size (15 frames, 13271040 bytes) > level limit (14 frames, 12582912 bytes)
x264 [info]: using cpu capabilities: MMX2 SSE2Fast SSSE3 Cache64
x264 [info]: profile High, level 4.1
x264 [info]: frame I:171 Avg QP:15.78 size: 53125
x264 [info]: frame P:8288 Avg QP:16.93 size: 11993
x264 [info]: frame B:16406 Avg QP:20.88 size: 4135
x264 [info]: consecutive B-frames: 12.2% 4.6% 9.9% 45.8% 13.0% 8.9% 2.5% 1.3% 0.8% 0.5% 0.2% 0.2% 0.2%
x264 [info]: mb I I16..4: 16.4% 64.7% 18.8%
x264 [info]: mb P I16..4: 3.3% 11.1% 1.9% P16..4: 24.6% 20.7% 4.2% 1.0% 0.1% skip:33.0%
x264 [info]: mb B I16..4: 1.0% 1.6% 0.2% B16..8: 32.4% 12.2% 1.3% direct: 3.7% skip:47.6% L0:43.2% L1:49.6% BI: 7.2%
x264 [info]: 8x8 transform intra:65.4% inter:66.1%
x264 [info]: direct mvs spatial:99.9% temporal:0.1%
x264 [info]: coded y,uvDC,uvAC intra: 58.9% 67.9% 47.3% inter: 10.8% 17.8% 5.7%
x264 [info]: i16 v,h,dc,p: 39% 13% 7% 40%
x264 [info]: i8 v,h,dc,ddl,ddr,vr,hd,vl,hu: 11% 9% 14% 8% 10% 11% 12% 10% 15%
x264 [info]: i4 v,h,dc,ddl,ddr,vr,hd,vl,hu: 21% 13% 19% 6% 9% 8% 8% 7% 9%
x264 [info]: i8c dc,h,v,p: 36% 32% 19% 13%
x264 [info]: Weighted P-Frames: Y:16.4% UV:9.3%
x264 [info]: ref P L0: 50.4% 8.5% 16.6% 5.6% 4.4% 3.1% 2.7% 1.5% 1.4% 1.1% 1.0% 0.9% 0.9% 0.8% 0.8% 0.3%
x264 [info]: ref B L0: 72.2% 12.3% 5.1% 2.6% 1.8% 1.4% 1.1% 0.7% 0.6% 0.6% 0.5% 0.5% 0.3% 0.2%
x264 [info]: ref B L1: 93.3% 6.7%
x264 [info]: kb/s:1360.15
General
Unique ID : 229373743954089203502110656312376643291 (0xAC8FC6B4A204D5E6AABCC4DD7F554EDB)
Complete name : \Madame_Tutli-Putli._(2007).WEB-DLRip.AVC.ac3-All.Films-RG.mkv
Format : Matroska
Format version : Version 2
File size : 224 MiB
Duration : 17mn 17s
Overall bit rate : 1 809 Kbps
Movie name : Мадам Тутли-Путли / Madame Tutli-Putli (2007) WEB-DLRip [All.Films][RG]
Encoded date : UTC 2012-05-13 23:57:25
Writing application : mkvmerge v5.0.1 ('Es ist Sommer') built on Oct 24 2011 19:45:06
Writing library : libebml v1.2.2 + libmatroska v1.3.0
Video
ID : 1
Format : AVC
Format/Info : Advanced Video Codec
Format profile : High@L4.1
Format settings, CABAC : Yes
Format settings, ReFrames : 15 frames
Codec ID : V_MPEG4/ISO/AVC
Duration : 17mn 17s
Bit rate : 1 325 Kbps
Width : 1 024 pixels
Height : 576 pixels
Display aspect ratio : 16:9
Frame rate : 23.976 fps
Color space : YUV
Chroma subsampling : 4:2:0
Bit depth : 8 bits
Scan type : Progressive
Bits/(Pixel*Frame) : 0.094
Stream size : 164 MiB (73%)
Writing library : x264 core 119 r2106 07efeb4
Encoding settings : cabac=1 / ref=15 / deblock=1:-3:-2 / analyse=0x3:0x133 / me=umh / subme=11 / psy=1 / psy_rd=1.00:0.15 / mixed_ref=1 / me_range=32 / chroma_me=1 / trellis=2 / 8x8dct=1 / cqm=0 / deadzone=21,11 / fast_pskip=1 / chroma_qp_offset=-3 / threads=3 / sliced_threads=0 / nr=0 / decimate=0 / interlaced=0 / bluray_compat=0 / constrained_intra=0 / bframes=12 / b_pyramid=2 / b_adapt=2 / b_bias=0 / direct=3 / weightb=1 / open_gop=0 / weightp=2 / keyint=250 / keyint_min=23 / scenecut=40 / intra_refresh=0 / rc=crf / mbtree=0 / crf=21.0 / qcomp=0.60 / qpmin=0 / qpmax=69 / qpstep=4 / ip_ratio=1.40 / pb_ratio=1.30 / aq=1:1.00
Default : Yes
Forced : No
Audio
ID : 2
Format : AC-3
Format/Info : Audio Coding 3
Mode extension : CM (complete main)
Format settings, Endianness : Big
Codec ID : A_AC3
Duration : 17mn 17s
Bit rate mode : Constant
Bit rate : 448 Kbps
Channel(s) : 6 channels
Channel positions : Front: L C R, Side: L R, LFE
Sampling rate : 48.0 KHz
Bit depth : 16 bits
Compression mode : Lossy
Stream size : 55.4 MiB (25%)
Default : Yes
Forced : No
Text
ID : 3
Format : UTF-8
Codec ID : S_TEXT/UTF8
Codec ID/Info : UTF-8 Plain Text
Title : Форсированные
Language : Russian
Default : Yes
Forced : NoFAQ по просмотру MKV/h.264/AAC
Другие раздачи
http://teatrix.ru/viewtopic.php?t=5132 (549 MB)
http://teatrix.ru/viewtopic.php?t=5113 (224 MB)
http://teatrix.ru/viewtopic.php?t=5110 (222 MB)



Показать сообщения:    

Текущее время: 05-Дек 19:39

Часовой пояс: UTC + 3


Вы не можете начинать темы
Вы не можете отвечать на сообщения
Вы не можете редактировать свои сообщения
Вы не можете удалять свои сообщения
Вы не можете голосовать в опросах
Вы не можете прикреплять файлы к сообщениям
Вы не можете скачивать файлы