Флюгер / Weathervane (Хоакин Кокинья / Joaquín Cociña / Joaquin Cocina) [2010, Чили, психоделическая анимация, короткий метр, DVDRip]


 

[Цитировать]

Флюгер
Weathervane- Страна: Чили
Жанр: психоделическая анимация, короткий метр
Год выпуска: 2010
Продолжительность: 00:03:24
Перевод: Не требуется
Cубтитры: нет
Оригинальная аудиодорожка: диалогов нет, записаны естественные звуки (шорохи, скрипы)
Режиссер: Хоакин Кокинья / Joaquín Cociña
В ролях: анимация
Описание: Joaquín Cociña родился в 1980 году в Чили. Получил степень бакалавра по искусству в Universidad Católica de Chile. Популярный молодой чилийский художник, работающий в сотрудничестве с приятелем Cristobal León. Их совместные работы выставляются в галереях Чили, Бразилии, Аргентины, Голландии, Германии и Великобритании. Некоторые циклы своих работ они затем анимируют, что и произошло с альбомом рисунков «Флюгер».
«Флюгер» - это анимационный фильм, сделанный углем и состоящий из 7 коротких частей, построенных на странных и грустных образах, типичных для латиноамериканской культуры: мертвой девушке; доме с привидениями; любви, которая выходит за пределы жизни и смерти.
Награды: 2 награды Vienna Independent Shorts International Film Festival 2010 (ASIFA Austria Award, лучшая иностранная анимационная короткометражка); Специальный приз Animafest Zagreb 2010; Гран-при жюри Festival International du film d’animation. Genève, Switzerland 2010 за лучшую анимацию; Гран-при жюри Disposable Film Festival, San Francisco 2010. Участник Short Film Corner, Cannes Film Festival 2010.
Сэмпл: http://multi-up.com/699158
Качество видео: DVDRip
Формат видео: AVI
Видео: XviD, 720x400 (1.80:1), 23.976 fps, ATI YVU12 4:2:0 Planar ~2308 kbps avg, 0.33 bit/pixel
Аудио: 48 kHz, MPEG Layer 3, 2 ch, ~192.00 kbps avg

MediaInfo

Полное имя : H:\My Torrents\[apreder]MM_Weathervane(2010)DVDRip.aviФормат : AVIФормат/Информация : Audio Video InterleaveРазмер файла : 61,3 МбайтПродолжительность : 3 м. 24 с.Общий поток : 2510 Кбит/секПрограмма кодирования : VirtualDubMod 1.5.10.3 | www.virtualdub-fr.org || (build 2550/release)Библиотека кодирования : VirtualDubMod build 2550/release
ВидеоИдентификатор : 0Формат : MPEG-4 VisualПрофиль формата : Advanced Simple@L5Параметр BVOP формата : 2Параметр QPel формата : НетПараметр GMC формата : Без точки переходаПараметр матрицы формата : Default (H.263)Режим смешивания : Сжатый битовый потокИдентификатор кодека : XVIDИдентификатор кодека/Подсказка : XviDПродолжительность : 3 м. 24 с.Битрейт : 2308 Кбит/секШирина : 720 пикселейВысота : 400 пикселейСоотношение сторон : 3:2Соотношение сторон в оригинале : 16:9Частота кадров : 23,976 кадра/секЦветовое пространство : YUVСубдискретизация насыщенности : 4:2:0Битовая глубина : 8 битТип развёртки : ПрогрессивнаяМетод сжатия : С потерямиБит/(Пиксели*Кадры) : 0.334Размер потока : 56,4 Мбайт (92%)Библиотека кодирования : XviD 64
АудиоИдентификатор : 1Формат : MPEG AudioВерсия формата : Version 1Профиль формата : Layer 3Режим : Joint stereoРасширение режима : MS StereoИдентификатор кодека : 55Идентификатор кодека/Подсказка : MP3Продолжительность : 3 м. 24 с.Вид битрейта : ПостоянныйБитрейт : 192 Кбит/секКаналы : 2 каналаЧастота : 48,0 КГцМетод сжатия : С потерямиРазмер потока : 4,69 Мбайт (8%)Выравнивание : Разделение по промежуткамПродолжительность промежутка : 42 мс. (1,00 видеокадр)Время предзагрузки промежутка : 500 мс.Библиотека кодирования : LAME3.98

Скриншот c названием фильма

Скриншоты




Показать сообщения:    

Текущее время: 09-Дек 10:49

Часовой пояс: UTC + 3


Вы не можете начинать темы
Вы не можете отвечать на сообщения
Вы не можете редактировать свои сообщения
Вы не можете удалять свои сообщения
Вы не можете голосовать в опросах
Вы не можете прикреплять файлы к сообщениям
Вы не можете скачивать файлы