Задерживая дыхание / Holding Your Breath (Энтони Лукас / Anthony Lucas) [2001, мультфильм, короткометражка, силуэтная анимация, драма, DVDRip] VO (Pr0peLLer) + rus sub


 

[Цитировать]

Задерживая дыхание / Holding Your Breath
Страна: Австралия
Жанр: мультфильм, короткометражка, силуэтная анимация, драма
Продолжительность: 00:06:38
Год выпуска: 2001
Перевод: Одноголосый закадровый (Pr0peLLer) по переводу LostCondom & leonchic
Русские субтитры: есть
Режиссёр: Энтони Лукас / Anthony Lucas

Описание: В городе, полном дыма от заводов, одинокий старик всеми силами ищет своего сына, давно потерянного при наводнении. Рассказ ведётся от лица маленькой девочки, встретившей однажды этого старика, навсегда повлиявшего на её жизнь...
Качество: DVDRip
Формат: AVI
Видео: 608x464 (1.31:1), 25 fps, XviD build 46 ~1587 kbps avg, 0.23 bit/pixel
Аудио 1: Русский, 48.0 KHz, AC3, 2 ch, 192 Kbps (Pr0peLLer)
Аудио 2: English, 48.0 KHz, AC3, 2 ch, 192 Kbps
Субтитры: английские, русские by LostCondom & leonchic (SRT)

Подробные технические данные

GeneralComplete name : Holding Your Breath.2001.aviFormat : AVIFormat/Info : Audio Video InterleaveFile size : 94.3 MiBDuration : 6mn 38sOverall bit rate : 1 986 KbpsWriting application : VirtualDubMod 1.5.10.2 (build 2542/release)Writing library : VirtualDubMod build 2542/release
VideoID : 0Format : MPEG-4 VisualFormat profile : Advanced Simple@L5Format settings, BVOP : 1Format settings, QPel : NoFormat settings, GMC : No warppointsFormat settings, Matrix : Default (MPEG)Codec ID : XVIDCodec ID/Hint : XviDDuration : 6mn 38sBit rate : 1 588 KbpsWidth : 608 pixelsHeight : 464 pixelsDisplay aspect ratio : 4:3Frame rate : 25.000 fpsColor space : YUVChroma subsampling : 4:2:0Bit depth : 8 bitsScan type : ProgressiveCompression mode : LossyBits/(Pixel*Frame) : 0.225Stream size : 75.4 MiB (80%)Writing library : XviD 1.1.2 (UTC 2006-11-01)
Audio #1ID : 1Format : AC-3Format/Info : Audio Coding 3Mode extension : CM (complete main)Format settings, Endianness : BigCodec ID : 2000Duration : 6mn 37sBit rate mode : ConstantBit rate : 192 KbpsChannel(s) : 2 channelsChannel positions : Front: L RSampling rate : 48.0 KHzBit depth : 16 bitsCompression mode : LossyStream size : 9.10 MiB (10%)Alignment : Split accross interleavesInterleave, duration : 40 ms (1.00 video frame)Interleave, preload duration : 500 ms
Audio #2ID : 2Format : AC-3Format/Info : Audio Coding 3Mode extension : CM (complete main)Format settings, Endianness : BigCodec ID : 2000Duration : 6mn 37sBit rate mode : ConstantBit rate : 192 KbpsChannel(s) : 2 channelsChannel positions : Front: L RSampling rate : 48.0 KHzBit depth : 16 bitsCompression mode : LossyStream size : 9.10 MiB (10%)Alignment : Split accross interleavesInterleave, duration : 40 ms (1.00 video frame)Interleave, preload duration : 500 ms

Скриншоты




Показать сообщения:    

Текущее время: 09-Дек 20:31

Часовой пояс: UTC + 3


Вы не можете начинать темы
Вы не можете отвечать на сообщения
Вы не можете редактировать свои сообщения
Вы не можете удалять свои сообщения
Вы не можете голосовать в опросах
Вы не можете прикреплять файлы к сообщениям
Вы не можете скачивать файлы