Цыпочка / Chick / Laska (Михал Соша / Michal Socha) [2009 г., короткометражный анимационный фильм, WEBRip-AVC 720]


 

[Цитировать]

Цыпочка : Chick : Laska Год выпуска: 2009
Страна: Польша
Жанр: короткометражный анимационный фильм : animated short film
Продолжительность: 00:05:06
Перевод: не требуется
субтитры: отсутствуют- студия: Platige Image
Режиссёр: Михал Соша : Michal Socha- Описание: Полная юмора, исключительно правдивая история отношений между мужчиной и женщиной.

Качество: WEBRip-AVC 720
Формат: MP4
Видео кодек: AVC
Аудио кодек: AAC
Видео: 1280x640 , 25 fps, ~2 504 kbps avg, 0.068 bit/pixel
Аудио: 44.1 kHz, 2ch, ~152 kbps avg--

MediaInfo

Общее
Полное имя : G:\Цыпочка\Chick.Laska.2008.WEBRip-AVC (720).mp4
Формат : MPEG-4
Профиль формата : Base Media
Идентификатор кодека : isom
Размер файла : 97,1 Мбайт
Продолжительность : 5 м. 6 с.
Режим общего битрейта : Переменный
Общий поток : 2658 Кбит/сек
Видео
Идентификатор : 1
Формат : AVC
Формат/Информация : Advanced Video Codec
Профиль формата : High@L3.1
Параметр CABAC формата : Да
Параметр ReFrames формата : 4 кадра
Идентификатор кодека : avc1
Идентификатор кодека/Информация : Advanced Video Coding
Продолжительность : 5 м. 6 с.
Битрейт : 2504 Кбит/сек
Максимальный битрейт : 7404 Кбит/сек
Ширина : 1280 пикселей
Высота : 640 пикселей
Соотношение сторон : 2,000
Режим частоты кадров : Постоянный
Частота кадров : 25,000 кадров/сек
Цветовое пространство : YUV
Субдискретизация насыщенности : 4:2:0
Битовая глубина : 8 бит
Тип развёртки : Прогрессивная
Бит/(Пиксели*Кадры) : 0.122
Размер потока : 91,5 Мбайт (94%)
Библиотека кодирования : Vimeo Encoder
Аудио
Идентификатор : 2
Формат : AAC
Формат/Информация : Advanced Audio Codec
Профиль формата : LC
Идентификатор кодека : 40
Продолжительность : 5 м. 6 с.
Вид битрейта : Переменный
Битрейт : 152 Кбит/сек
Максимальный битрейт : 164 Кбит/сек
Каналы : 2 канала
Расположение каналов : Front: L R
Частота : 44,1 КГц
Метод сжатия : С потерями
Размер потока : 5,55 Мбайт (6%)



Показать сообщения:    

Текущее время: 09-Дек 01:08

Часовой пояс: UTC + 3


Вы не можете начинать темы
Вы не можете отвечать на сообщения
Вы не можете редактировать свои сообщения
Вы не можете удалять свои сообщения
Вы не можете голосовать в опросах
Вы не можете прикреплять файлы к сообщениям
Вы не можете скачивать файлы