Страх(и) темноты / Peur(s) du noir / Fear(s) of the Dark (Блатч / Blutch, Чарльз Бернс / Charles Burns и др.) [2007, ужасы, драма, детектив, DVDRip] DVO


 

[Цитировать]

Страх[и] темноты / Peur[s] du noir / Fear[s] of the Dark
Страна: Франция
Жанр: ужасы, драма, детектив
Продолжительность: 01:19:02
Год выпуска: 2007
Перевод: Любительский (двухголосый закадровый)
Русские субтитры: нет
РЕЖИССЁРЫ
  • Блатч / Blutch
  • Чарльз Бернс / Charles Burns
  • Мари Кайу / Marie Caillou
  • Пьер ди Сиулло / Pierre Di Sciullo
  • Лоренцо Маттотти / Lorenzo Mattotti
  • Ричард МакГуайр / Richard McGuire
АРТ-ДИРЕКТОР
Этьен Робиаль / Etienne Robial
Описание: Уникальный анимационный проект, объединивший лучших художников в жанре комиксов. Впервые им было предложено «выложить» на кинопленку мурашки по коже, обнаженные нервы и дрожь потных рук — все, что связано с самым древним человеческим страхом — страхом темноты.
Доп. информация: Участник 15-го Международного фестиваля фантастических фильмов в Жерармере,
а также Международных фестивалей в Риме, Лос-Анджелесе, Роттердаме, Sundance 2008, Anima 2008, PiFan 2008 и других.
Качество: DVDRip
Формат: AVI
Видео: XviD, 704:384, 16:9, 25 fps, 1100 kbps
Аудио: MP3, 48000 Hz, 2.0 ch, 128 kbps
Субтитры: отсутствуют
WWW.PEURSDUNOIR-LEFILM.COM

Подробные технические данные

ОбщееПолное имя : D:\Torrents\Strah(i).temnoty.2007.DVDRip.aviФормат : AVIФормат/Информация : Audio Video InterleaveРазмер файла : 700 МбайтПродолжительность : 1 ч. 19 м.Общий поток : 1238 Кбит/секПрограмма кодирования : FairUse Wizard - http://fairusewizard.comБиблиотека кодирования : The best and REALLY easy backup tool
ВидеоИдентификатор : 0Формат : MPEG-4 VisualПрофиль формата : Advanced Simple@L5Параметр BVOP формата : 1Параметр QPel формата : НетПараметр GMC формата : Без точки переходаПараметр матрицы формата : Default (MPEG)Режим смешивания : Сжатый битовый потокИдентификатор кодека : XVIDИдентификатор кодека/Подсказка : XviDПродолжительность : 1 ч. 19 м.Битрейт : 1100 Кбит/секШирина : 704 пикселяВысота : 384 пикселяСоотношение сторон : 16:9Частота кадров : 25,000 кадров/секЦветовое пространство : YUVСубдискретизация насыщенности : 4:2:0Битовая глубина : 8 битТип развёртки : ПрогрессивнаяМетод сжатия : С потерямиБит/(Пиксели*Кадры) : 0.163Размер потока : 622 Мбайт (89%)Библиотека кодирования : XviD 1.2.0.dev47 (UTC 2006-11-01)
АудиоИдентификатор : 1Формат : MPEG AudioВерсия формата : Version 1Профиль формата : Layer 3Режим : Joint stereoРасширение режима : MS StereoИдентификатор кодека : 55Идентификатор кодека/Подсказка : MP3Продолжительность : 1 ч. 19 м.Вид битрейта : ПостоянныйБитрейт : 128 Кбит/секКаналы : 2 каналаЧастота : 48,0 КГцМетод сжатия : С потерямиРазмер потока : 72,4 Мбайт (10%)Выравнивание : Соединение по промежуткамПродолжительность промежутка : 40 мс. (1,00 видеокадр)Время предзагрузки промежутка : 504 мс.Библиотека кодирования : LAME3.97Настройки программы : -m j -V 4 -q 2 -lowpass 17 -b 128

Скриншоты




Показать сообщения:    

Текущее время: 07-Дек 11:39

Часовой пояс: UTC + 3


Вы не можете начинать темы
Вы не можете отвечать на сообщения
Вы не можете редактировать свои сообщения
Вы не можете удалять свои сообщения
Вы не можете голосовать в опросах
Вы не можете прикреплять файлы к сообщениям
Вы не можете скачивать файлы