Песня неба / Taevalaul / Sky Song (Мати Кютт / Mati Kütt) [2010, Фентези, сюрреализм, HDRip] rus sub


 

[Цитировать]

Песня неба / Taevalaul / Sky Song
Страна: Эстония
Жанр: Фентези, сюрреализм
Продолжительность: 00:45:22
Год выпуска: 2010
Перевод: Субтитры
Русские субтитры: есть
Режиссёр: Мати Кютт / Mati Kütt
Описание: Эта полнометражная лента Мати Кютта - своеобразная ода, посвященная всем тем, кто любит летать.
Можно ли на одном дыхании достичь Луны? Да, если у вас есть твердое намерение полететь и вы прошли соответствующую подготовку. Именно этими качествами обладает почтальон Рейн.
Это анимация, полный экспериментов с формой и материалами. Большинство символов в картине являются оригинальными, но есть и исторические фигуры и события. Фильм, полный символов и символизма, сюрреалистических образов и фрагментов.
"Песня неба" рассказывает не только о путешествии почтальона, которому нужно доставить пакет на Луну. Это также философское турне во времени, через эпохи, людей и их символоы, через реальность и иллюзии. Это визуальная версия мысли и воображения почтальона, который выполняет свою задачу, несмотря на все проблемы и отвлекающие факторы.
Доп. информация: 2011 - Лучший фильм 2010 года по версии Эстонкого Культурного Капитала
2011 - Лучший фильм 2010 года по версии Эстонской ассоциации кинокритиков
Семпл
Качество: HDRip
Формат: AVI
Видео: 720x576 (16:9), 25 fps, XviD build 46 ~1398 kbps avg, 0.14 bit/pixel
Аудио: MPEG Audio Layer 3 48000Hz stereo 160kbps [Stream 01]
Субтитры: srt

Субтитры

1
00:00:22,800 --> 00:00:32,312
Законы природы - штрих-код реальности
Джон Д.Бэрроу
2
00:00:39,800 --> 00:00:47,012
ПЕСНЯ НЕБА
3
00:28:20,100 --> 00:28:22,212
Добрый вечер!
4
00:28:22,500 --> 00:28:24,812
Вы верите
в призраков?
5
00:28:25,000 --> 00:28:28,961
Конечно, нет.
Я знал, что не верите.
6
00:28:40,000 --> 00:28:45,861
Дети, вы хотите
увидеть лунный ландшафт?
7
00:42:25,300 --> 00:42:30,300
Здесь Джон. Земля. Прием.
8
00:42:31,000 --> 00:42:32,700
С Рыбой все прошло хорошо
9
00:42:33,000 --> 00:42:35,700
Иди к Лунной Речке
10
00:42:36,000 --> 00:42:40,000
И сделай всех людейлучше и счастливие!
11
00:42:42,010 --> 00:42:46,800
Избавь их от жестокости и насилия.Конец связи.
12
00:42:48,010 --> 00:42:53,000
Я......Хорошо.....

Подробные технические данные

GeneralComplete name : G:\GAMES\Sky.Song._2010.aviFormat : AVIFormat/Info : Audio Video InterleaveFile size : 510 MiBDuration : 45mn 21sOverall bit rate : 1 572 KbpsDirector : created.with.SUPER(C).v2011.bld.49Writing application : SUPER(C) - by eRightSoft
VideoID : 0Format : MPEG-4 VisualFormat profile : Advanced Simple@L5Format settings, BVOP : 2Format settings, QPel : NoFormat settings, GMC : No warppointsFormat settings, Matrix : Default (MPEG)Codec ID : XVIDCodec ID/Hint : XviDDuration : 45mn 21sBit rate : 1 400 KbpsWidth : 720 pixelsHeight : 576 pixelsDisplay aspect ratio : 16:9Frame rate : 25.000 fpsStandard : PALColor space : YUVChroma subsampling : 4:2:0Bit depth : 8 bitsScan type : ProgressiveCompression mode : LossyBits/(Pixel*Frame) : 0.135Stream size : 454 MiB (89%)Writing library : XviD 1.1.2 (UTC 2006-11-01)
AudioID : 1Format : MPEG AudioFormat version : Version 1Format profile : Layer 3Codec ID : 55Codec ID/Hint : MP3Duration : 45mn 21sBit rate mode : ConstantBit rate : 160 KbpsChannel(s) : 2 channelsSampling rate : 48.0 KHzCompression mode : LossyDelay relative to video : 40msStream size : 51.9 MiB (10%)Alignment : Aligned on interleavesInterleave, duration : 24 ms (0.60 video frame)Interleave, preload duration : 504 msWriting library : LAME3.97



Показать сообщения:    

Текущее время: 05-Дек 11:33

Часовой пояс: UTC + 3


Вы не можете начинать темы
Вы не можете отвечать на сообщения
Вы не можете редактировать свои сообщения
Вы не можете удалять свои сообщения
Вы не можете голосовать в опросах
Вы не можете прикреплять файлы к сообщениям
Вы не можете скачивать файлы