Судьба / Destino (Доминик Монфери / Dominique Monfery) [2003, Анимация, Сюрреализм, BDRip-AVC 480p] Salvador Dali & Walt Disney Film


 

[Цитировать]

Судьба / Destino | Salvador Dali & Walt Disney Film- Год выпуска: 2003
Страна: США, Франция
Жанр: Анимация, Сюрреализм
Продолжительность: 00:06:31
Перевод: Не требуется
Русские субтитры: нет-Режиссер: Доминик Монфери / Dominique Monfery
Сценарий: Сальвадор Дали, Джон Хенч, Дональд В. Эрнст / Salvador Dalí, John Hench, Donald W. Ernst- -Описание: В 1946 году Дали и Дисней подписали контракт на производство сюрреалистичного мультфильма «Destino». Но между гениальным живописцем и не менее гениальным мультипликатором «разногласия» были неизбежны. Сальвадор Дали запросил баснословную сумму и упорствовал, что до завершения мультфильм не должен являться собственностью Диснея. Закончить работу над мультфильмом Диснею помешали финансовые проблемы, в послевоенные годы аниматор создавал большое количество картин по заказу правительства и почти ничего не зарабатывал. «Дестино» воссоздали из сотен раскадровок, рисунков и набросков, созданных в 1945-м – 1946-м годах. Они хранились в архивах племянника Уолта Диснея, Роя. Он, кстати, вошёл в команду из 25-ти аниматоров, работавших над мультфильмом. Сотрудничество студии Диснея с Дали началось в 40-м году с мультфильма «Фантазия» (ставшего классикой мультипликации), именно тогда основатель знаменитой студии решил, что взаимодействие с художником поможет возвести анимацию в ранг «высокого искусства». После 60-летних мучений «Destino» был завершен — и только в 2003 году увидел свет.-Качество: BDRip-AVC 480p
Формат: MKV
Видео: 852x480 (1.77:1), 23.976 fps, AVC, ~3450 Kbps, 0.352 bits/pixel
Аудио: English, 48.0 KHz, AC3, 2 ch, 192 kbps
Субтитры: отсутствуют

MediaInfo

General
Unique ID                        : 198139397130890305386146125400574043340 (0x95104282E3D174FE99C6A20A7D48A4CC)
Complete name                    : Destino.Salvador_Dali_&_Walt_Disney.2003.BDRip.480p.mkv
Format                           : Matroska
Format version                   : Version 2
File size                        : 173 MiB
Duration                         : 6mn 31s
Overall bit rate                 : 3 716 Kbps
Movie name                       : Destino (2003)
Encoded date                     : UTC 2011-12-20 17:00:20
Writing application              : mkvmerge v5.0.0 ('Die Wahre Liebe') built on Sep 25 2011 20:33:49
Writing library                  : libebml v1.2.2 + libmatroska v1.3.0
Video
ID                               : 1
Format                           : AVC
Format/Info                      : Advanced Video Codec
Format profile                   : High@L3.1
Format settings, CABAC           : Yes
Format settings, ReFrames        : 8 frames
Codec ID                         : V_MPEG4/ISO/AVC
Duration                         : 6mn 31s
Bit rate                         : 3 450 Kbps
Width                            : 852 pixels
Height                           : 480 pixels
Display aspect ratio             : 16:9
Frame rate                       : 23.976 fps
Color space                      : YUV
Chroma subsampling               : 4:2:0
Bit depth                        : 8 bits
Scan type                        : Progressive
Bits/(Pixel*Frame)               : 0.352
Stream size                      : 161 MiB (93%)
Title                            : xfiles / RG Мультфильмы /
Writing library                  : x264 core 115 r2008bm 4c552d8
Encoding settings                : cabac=1 / ref=8 / deblock=1:0:0 / analyse=0x3:0x133 / me=umh / subme=9 / psy=1 / psy_rd=1.00:0.00 / mixed_ref=1 / me_range=16 / chroma_me=1 / trellis=2 / 8x8dct=1 / cqm=0 / deadzone=21,11 / fast_pskip=1 / chroma_qp_offset=-2 / threads=3 / sliced_threads=0 / nr=0 / decimate=1 / interlaced=0 / bluray_compat=0 / constrained_intra=0 / bframes=3 / b_pyramid=2 / b_adapt=2 / b_bias=0 / direct=3 / weightb=1 / open_gop=0 / weightp=2 / keyint=250 / keyint_min=23 / scenecut=40 / intra_refresh=0 / rc_lookahead=60 / rc=crf / mbtree=1 / crf=18.0 / qcomp=0.60 / qpmin=0 / qpmax=69 / qpstep=4 / ip_ratio=1.40 / aq=1:1.00
Default                          : Yes
Forced                           : No
Audio
ID                               : 2
Format                           : AC-3
Format/Info                      : Audio Coding 3
Mode extension                   : CM (complete main)
Codec ID                         : A_AC3
Duration                         : 6mn 31s
Bit rate mode                    : Constant
Bit rate                         : 192 Kbps
Channel(s)                       : 2 channels
Channel positions                : Front: L R
Sampling rate                    : 48.0 KHz
Bit depth                        : 16 bits
Compression mode                 : Lossy
Stream size                      : 8.96 MiB (5%)
Language                         : English
Default                          : Yes
Forced                           : No



Показать сообщения:    

Текущее время: 07-Дек 19:28

Часовой пояс: UTC + 3


Вы не можете начинать темы
Вы не можете отвечать на сообщения
Вы не можете редактировать свои сообщения
Вы не можете удалять свои сообщения
Вы не можете голосовать в опросах
Вы не можете прикреплять файлы к сообщениям
Вы не можете скачивать файлы