Добрая тётя / Tuvitаdi (Рао Хейдметс / Rao Heidmets) [1983, Кукольный мультфильм, SATRip]


 

[Цитировать]

Добрая тётя / Tuvitаdi
Выпущено: СССР / Таллиннфильм
Жанр: Кукольный мультфильм
Продолжительность: 00:09:07
Год выпуска: 1983
Перевод: Не требуется
Русские субтитры: нет
Режиссёр: Рао Хейдметс / Rao Heidmets
Описание: Мультипликационный фильм для детей о том, как в одном городе живет добрая и готовая помочь тетя, которая кормит голубей. Весёлая, и вместе с тем поучительная история о том, что доброта - это не только естественное качество настоящего человека, но и о том, что добро - сила, которая помогает преодолеть множество жизненных преград.
Доп. информация: 1983 - Приз за Лучший Мультфильм на третьем Всесоюзном молодежном кинофестивале в Кишиневе (Молдавия, СССР)
Слова благодарности за эту раздау прошу адресовать tengu

Семпл: http://multi-up.com/607874
Качество: SATRip
Формат: AVI
Видео: 704x528 (1.33:1), 25 fps, XviD MPEG-4 ~2382 kbps avg, 0.26 bit/pixel
Аудио: 48 kHz, MPEG Layer 3, 2 ch, ~224.00 kbps avg
Субтитры: отсутствуют

Подробные технические данные

VideoID : 0Format : MPEG-4 VisualFormat profile : Advanced Simple@L5Format settings, BVOP : 2Format settings, QPel : NoFormat settings, GMC : No warppointsFormat settings, Matrix : Default (MPEG)Muxing mode : Packed bitstreamCodec ID : XVIDCodec ID/Hint : XviDDuration : 9mn 7sBit rate : 2 380 KbpsWidth : 704 pixelsHeight : 528 pixelsDisplay aspect ratio : 4:3Frame rate : 25.000 fpsColor space : YUVChroma subsampling : 4:2:0Bit depth : 8 bitsScan type : ProgressiveCompression mode : LossyBits/(Pixel*Frame) : 0.256Stream size : 155 MiB (91%)Writing library : XviD 64
AudioID : 1Format : MPEG AudioFormat version : Version 1Format profile : Layer 3Mode : Joint stereoMode extension : MS StereoCodec ID : 55Codec ID/Hint : MP3Duration : 9mn 7sBit rate mode : ConstantBit rate : 224 KbpsChannel(s) : 2 channelsSampling rate : 48.0 KHzCompression mode : LossyStream size : 14.6 MiB (9%)Alignment : Aligned on interleavesInterleave, duration : 40 ms (1.00 video frame)Interleave, preload duration : 408 ms

Скриншоты




Показать сообщения:    

Текущее время: 08-Дек 23:09

Часовой пояс: UTC + 3


Вы не можете начинать темы
Вы не можете отвечать на сообщения
Вы не можете редактировать свои сообщения
Вы не можете удалять свои сообщения
Вы не можете голосовать в опросах
Вы не можете прикреплять файлы к сообщениям
Вы не можете скачивать файлы