Фимфарум - В третий раз повезло / Fimfarum - Do tretice vseho dobreho (Власта Поспислова / Vlasta Pospisilova, Давид Сукуп / David Sukup, Кристина Дуфкова / Kristina Dufkova) [2011, Чехия, Анимация, HDRip] Sub Rus + Original Cze


 

[Цитировать]

Фимфарум - В третий раз повезло / Fimfarum - Do tretice vseho dobreho
Страна: Чехия
Жанр: Анимация
Год выпуска: 2011
Продолжительность: 01:15:16
Перевод: Субтитры
Cубтитры: Русские (любительский перевод), английские, чешские.
Оригинальная аудиодорожка: чешский
Режиссер: Власта Поспислова, Давид Сукуп, Кристина Дуфкова / Vlasta Pospísilova, David Sukup, Kristina Dufkova
В ролях: Съемочная группа киножурнала, огры, шумавское население, король и три его сына, Разум, Счастье, Свинопас Людек, принцесса Засу.
Описание: Мультфильм состоит из трех историй, снятых по мотивам сказок Яна Вериха. Первая история, режиссера Кристины Дуфковой, о том, как съемочная группа едет в шумавские леса на юге Чехии чтобы выяснить, жили ли там когда-то огры. Вторая история, снятая Властой Посписловой о царе, который посылает своих сыновей отыскать его шляпу с пером сойки, которую он оставил в пивнушке когда то в молодости. В третьей истории, режиссера Давида Сукупа, Разум и Счастье пытаются доказать свою важность в жизни человека и круто меняют жизнь свинопаса Людека.
Дополнительная информация:http://www.ceskatelevize.cz/specialy/fimfarum/
Сэмпл: http://multi-up.com/599586
Качество видео: HDRip
Формат видео: MKV
Видео: AVC, MPEG4 Video (H264), 1280x688 1,860 23,976 кадра/сек, 4 021 Kbps
Аудио: Dolby AC3, 48,0 КГц, 640 Кбит/сек, 6 каналов
Аудио 2: DTS, 48,0 КГц, 1510 Кбит/сек, 6 каналов
Формат субтитров: softsub (SRT)

MediaInfo

Общее
Уникальный идентификатор : 215889540393323808851171075838542173028 (0xA26AD02432E53310A08A9BE8FF615364)
Полное имя : D:\МУЛЬТФИЛЬМЫ\Fimfarum_3\Fimfarum_do_tretice_vseho_dobreho_2011.mkv
Формат : Matroska
Версия формата : Version 2
Размер файла : 3,24 Гбайт
Продолжительность : 1 ч. 15 м.
Общий поток : 6164 Кбит/сек
Дата кодирования : UTC 2011-10-29 00:30:19
Программа кодирования : mkvmerge v3.4.0 ('Rapunzel') built on May 15 2010 09:38:20
Библиотека кодирования : libebml v0.8.0 + libmatroska v0.9.0
Видео
Идентификатор : 1
Формат : AVC
Формат/Информация : Advanced Video Codec
Профиль формата : High@L4.1
Параметр CABAC формата : Да
Параметр ReFrames формата : 4 кадра
Идентификатор кодека : V_MPEG4/ISO/AVC
Продолжительность : 1 ч. 15 м.
Битрейт : 4021 Кбит/сек
Ширина : 1280 пикселей
Высота : 688 пикселей
Соотношение сторон : 1,860
Частота кадров : 23,976 кадра/сек
Цветовое пространство : YUV
Субдискретизация насыщенности : 4:2:0
Битовая глубина : 8 бит
Тип развёртки : Прогрессивная
Бит/(Пиксели*Кадры) : 0.190
Размер потока : 2,05 Гбайт (63%)
Библиотека кодирования : x264 core 116 r2074 2641b9e
Настройки программы : cabac=1 / ref=4 / deblock=1:-2:-2 / analyse=0x3:0x113 / me=umh / subme=6 / psy=1 / psy_rd=1.00:0.00 / mixed_ref=1 / me_range=16 / chroma_me=1 / trellis=0 / 8x8dct=1 / cqm=0 / deadzone=21,11 / fast_pskip=1 / chroma_qp_offset=-2 / threads=12 / sliced_threads=0 / nr=0 / decimate=0 / interlaced=0 / bluray_compat=0 / constrained_intra=0 / bframes=3 / b_pyramid=2 / b_adapt=1 / b_bias=0 / direct=1 / weightb=1 / open_gop=0 / weightp=2 / keyint=250 / keyint_min=23 / scenecut=40 / intra_refresh=0 / rc_lookahead=40 / rc=2pass / mbtree=1 / bitrate=4021 / ratetol=2.0 / qcomp=0.60 / qpmin=10 / qpmax=51 / qpstep=4 / cplxblur=20.0 / qblur=0.5 / vbv_maxrate=38000 / vbv_bufsize=30000 / nal_hrd=none / ip_ratio=1.40 / aq=1:1.00
Язык : English
Аудио #1
Идентификатор : 2
Формат : AC-3
Формат/Информация : Audio Coding 3
Расширение режима : CM (complete main)
Идентификатор кодека : A_AC3
Продолжительность : 1 ч. 15 м.
Вид битрейта : Постоянный
Битрейт : 640 Кбит/сек
Каналы : 6 каналов
Расположение каналов : Front: L C R, Side: L R, LFE
Частота : 48,0 КГц
Битовая глубина : 16 бит
Метод сжатия : С потерями
Размер потока : 345 Мбайт (10%)
Язык : Czech
Аудио #2
Идентификатор : 3
Формат : DTS
Формат/Информация : Digital Theater Systems
Идентификатор кодека : A_DTS
Продолжительность : 1 ч. 15 м.
Вид битрейта : Постоянный
Битрейт : 1510 Кбит/сек
Каналы : 6 каналов
Расположение каналов : Front: L C R, Side: L R, LFE
Частота : 48,0 КГц
Битовая глубина : 24 бит
Метод сжатия : С потерями
Размер потока : 813 Мбайт (24%)
Язык : Czech
Текст #1
Идентификатор : 4
Формат : UTF-8
Идентификатор кодека : S_TEXT/UTF8
Идентификатор кодека/Информация : UTF-8 Plain Text
Язык : Czech
Текст #2
Идентификатор : 5
Формат : UTF-8
Идентификатор кодека : S_TEXT/UTF8
Идентификатор кодека/Информация : UTF-8 Plain Text
Язык : English

Скриншот c названием фильма




Показать сообщения:    

Текущее время: 10-Дек 15:48

Часовой пояс: UTC + 3


Вы не можете начинать темы
Вы не можете отвечать на сообщения
Вы не можете редактировать свои сообщения
Вы не можете удалять свои сообщения
Вы не можете голосовать в опросах
Вы не можете прикреплять файлы к сообщениям
Вы не можете скачивать файлы