Отвергнутые / Rejected (Дон Хетцфельд / Don Hertzfeldt) [2000, короткометражный анимационный фильм, WEBRip-AVC (720)] VO (Stacy)


 

[Цитировать]

Отвергнутые / Rejected
Страна: США
Жанр: короткометражный анимационный фильм / animated short film
Продолжительность: 00:09:21
Год выпуска: 2000
Перевод: Одноголосый закадровый (Stacy)
Озвучено по субтитрам: -Azureus-
Русские субтитры: нет
Режиссёр: Дон Хетцфельд / Don Hertzfeldt
Описание: Работа аниматоров была отвергнута из-за ее тона: абсурдного и насильственного. И однажды, созданный ими мир обрушился на самих аниматоров.

Качество: WEBRip-AVC (720)
Формат: MP4
Видео кодек: AVC
Аудио кодек: AAC
Видео: 1280x720, 23,976 fps, ~1 928 kbps avg, 0.087 bit/pixel
Аудио: 44.1 kHz, 2ch, ~128 kbps avg

Подробные технические данные

Format : MPEG-4Format profile : Base MediaCodec ID : isomFile size : 138 MiBDuration : 9mn 21sOverall bit rate : 2 058 KbpsEncoded date : UTC 2011-11-13 21:11:55Tagged date : UTC 2011-11-13 21:11:55
VideoID : 2Format : AVCFormat/Info : Advanced Video CodecFormat profile : High@L3.1Format settings, CABAC : YesFormat settings, ReFrames : 3 framesFormat settings, GOP : M=1, N=60Codec ID : avc1Codec ID/Info : Advanced Video CodingDuration : 9mn 21sBit rate mode : VariableBit rate : 1 928 KbpsMaximum bit rate : 5 896 KbpsWidth : 1 280 pixelsHeight : 720 pixelsDisplay aspect ratio : 16:9Frame rate mode : ConstantFrame rate : 23.976 fpsColor space : YUVChroma subsampling : 4:2:0Bit depth : 8 bitsScan type : ProgressiveBits/(Pixel*Frame) : 0.087Stream size : 129 MiB (94%)Title : (C) 2007 Google Inc. v08.13.2007.Encoded date : UTC 2010-01-09 04:15:01Tagged date : UTC 2011-11-13 21:11:55
AudioID : 3Format : AACFormat/Info : Advanced Audio CodecFormat profile : LCCodec ID : 40Duration : 9mn 21sBit rate mode : VariableBit rate : 128 KbpsMaximum bit rate : 133 KbpsChannel(s) : 2 channelsChannel positions : Front: L RSampling rate : 44.1 KHzCompression mode : LossyStream size : 8.56 MiB (6%)Language : EnglishEncoded date : UTC 2011-11-13 21:11:55Tagged date : UTC 2011-11-13 21:11:55

Скриншоты




Показать сообщения:    

Текущее время: 02-Дек 21:06

Часовой пояс: UTC + 3


Вы не можете начинать темы
Вы не можете отвечать на сообщения
Вы не можете редактировать свои сообщения
Вы не можете удалять свои сообщения
Вы не можете голосовать в опросах
Вы не можете прикреплять файлы к сообщениям
Вы не можете скачивать файлы