Апрельская песня / Aprilova romance (Гарик Секо / Garik Seko) [1985, Чехословакия, Анимация, игровой фильм, TVRip]


 

[Цитировать]

Апрельская песня / Aprilova romance
Страна: Чехословакия
Жанр: Анимация, игровой фильм
Год выпуска: 1985
Продолжительность: 00:08:29
Перевод: Не требуется
Cубтитры: нет
Режиссер: Гарик Секо / Garik Seko
В ролях: Мальчик в пижаме - Мартин Секо
Описание: Мультфильм Гарика Секо сделанный в комбинированной технике в котором он создает образы с помощью ниток и кружев.
Доп. информация: Гарик Секо (род. 29.06.1935, Тбилиси, Грузия - умер 20.06.1994, Прага, Чехия) - мастер чешской анимации дебютировавший как режиссер в 1964 году, а до этого успевший поучиться сразу у двух славных старших коллег – у Иржи Трнки и Гермины Тырловой. От Трнки он перенял необычайные навыки одушевителя, способного убедительно оживить любой предмет, а у Тырловой научился неожиданно использовать фактуру материала. Свои первые фильмы Секо делает из камней, ниток, проволоки, а впоследствии занимается и одушевлением объектов, снимая фильмы про пуговицы… или вот – насыщенную историю про жизнь обуви.
Качество видео: TVRip
Формат видео: AVI
Видео: 720x576 (1.25:1), 25 fps, XviD build 50 ~1194 kbps avg, 0.12 bit/pixel
Аудио: 44.100 kHz, MPEG Layer 3, 2 ch, ~128.00 kbps avg

MediaInfo

Общее
Полное имя : D:\торренты\Seco\Aprilova_romance_Seko_1985.avi
Формат : AVI
Формат/Информация : Audio Video Interleave
Размер файла : 81,1 Мбайт
Продолжительность : 8 м. 29 с.
Общий поток : 1336 Кбит/сек
Программа кодирования : MEncoder SVN-r30881(20100311-gcc4.3.3)
Библиотека кодирования : MPlayer
Видео
Идентификатор : 0
Формат : MPEG-4 Visual
Профиль формата : Advanced Simple@L5
Параметр BVOP формата : 2
Параметр QPel формата : Нет
Параметр GMC формата : Без точки перехода
Параметр матрицы формата : Default (H.263)
Идентификатор кодека : XVID
Идентификатор кодека/Подсказка : XviD
Продолжительность : 8 м. 29 с.
Битрейт : 1195 Кбит/сек
Ширина : 720 пикселей
Высота : 576 пикселей
Соотношение сторон : 4:3
Частота кадров : 25,000 кадров/сек
Стандарт вещания : PAL
Цветовое пространство : YUV
Субдискретизация насыщенности : 4:2:0
Битовая глубина : 8 бит
Тип развёртки : Прогрессивная
Метод сжатия : С потерями
Бит/(Пиксели*Кадры) : 0.115
Размер потока : 72,5 Мбайт (89%)
Библиотека кодирования : XviD 1.2.1 (UTC 2008-12-04)
Аудио
Идентификатор : 1
Формат : MPEG Audio
Версия формата : Version 1
Профиль формата : Layer 3
Режим : Joint stereo
Расширение режима : MS Stereo
Идентификатор кодека : 55
Идентификатор кодека/Подсказка : MP3
Продолжительность : 8 м. 29 с.
Вид битрейта : Постоянный
Битрейт : 128 Кбит/сек
Каналы : 2 канала
Частота : 44,1 КГц
Метод сжатия : С потерями
Задержка видео : 40 мс.
Размер потока : 7,77 Мбайт (10%)
Выравнивание : Соединение по промежуткам
Продолжительность промежутка : 26 мс. (0,65 видеокадр)
Время предзагрузки промежутка : 522 мс.

Скриншот c названием фильма

Скриншоты




Показать сообщения:    

Текущее время: 03-Дек 01:21

Часовой пояс: UTC + 3


Вы не можете начинать темы
Вы не можете отвечать на сообщения
Вы не можете редактировать свои сообщения
Вы не можете удалять свои сообщения
Вы не можете голосовать в опросах
Вы не можете прикреплять файлы к сообщениям
Вы не можете скачивать файлы