Цыпочка / Chick / Laska (Михал Соша / Michal Socha) [2009, Польша, Короткометражная анимация, WEBRip-AVC]


 

[Цитировать]

-ЦыпочкаChick / Laska- Год выпуска: 2009
Страна: Польша
Жанр: Короткометражная анимация
Продолжительность: 00:05:03
Перевод: Не требуется
субтитры: отсутствуют- Студия: Platige Image
Режиссер: Михал Соша / Michal Socha- Описание: Полная юмора, исключительно правдивая история отношений между мужчиной и женщиной.- Качество: WEBRip-AVC
Формат: MP4
Видео кодек: AVC
Аудио кодек: AAC
Видео: 640х320, 25 fps, ~839 kbps avg, 0.164 bit/pixel
Аудио: 44.1 kHz, 2ch, ~151 kbps avg- -

MediaInfo

Общее
Полное имя : C:\Цыпочка\Laska.2008.WEBRip-AVC.mp4
Формат : MPEG-4
Профиль формата : Base Media
Идентификатор кодека : isom
Размер файла : 35,8 Мбайт
Продолжительность : 5 м. 2 с.
Общий поток : 994 Кбит/сек
Дата кодирования : UTC 2011-10-03 05:42:45
Дата пометки : UTC 2011-10-03 05:42:45
Видео
Идентификатор : 1
Формат : AVC
Формат/Информация : Advanced Video Codec
Профиль формата : High@L3.1
Параметр CABAC формата : Да
Параметр ReFrames формата : 6 кадров
Идентификатор кодека : avc1
Идентификатор кодека/Информация : Advanced Video Coding
Продолжительность : 5 м. 2 с.
Битрейт : 839 Кбит/сек
Максимальный битрейт : 3491 Кбит/сек
Ширина : 640 пикселей
Высота : 320 пикселей
Соотношение сторон : 2,000
Режим частоты кадров : Постоянный
Частота кадров : 25,000 кадров/сек
Цветовое пространство : YUV
Субдискретизация насыщенности : 4:2:0
Битовая глубина : 8 бит
Тип развёртки : Прогрессивная
Бит/(Пиксели*Кадры) : 0.164
Размер потока : 30,2 Мбайт (84%)
Библиотека кодирования : x264 core 116 r2044 392e762
Настройки программы : cabac=1 / ref=6 / deblock=1:1:1 / analyse=0x3:0x113 / me=umh / subme=9 / psy=1 / psy_rd=0.40:0.00 / mixed_ref=1 / me_range=16 / chroma_me=0 / trellis=0 / 8x8dct=1 / cqm=0 / deadzone=21,11 / fast_pskip=1 / chroma_qp_offset=-2 / threads=3 / sliced_threads=0 / nr=0 / decimate=1 / interlaced=0 / bluray_compat=0 / constrained_intra=0 / bframes=8 / b_pyramid=2 / b_adapt=2 / b_bias=0 / direct=0 / weightb=1 / open_gop=0 / weightp=0 / keyint=250 / keyint_min=25 / scenecut=40 / intra_refresh=0 / rc_lookahead=100 / rc=crf / mbtree=1 / crf=20.0 / qcomp=0.60 / qpmin=10 / qpmax=69 / qpstep=4 / ip_ratio=1.70 / aq=1:0.80
Дата кодирования : UTC 2011-10-03 05:42:45
Дата пометки : UTC 2011-10-03 05:42:46
Аудио
Идентификатор : 2
Формат : AAC
Формат/Информация : Advanced Audio Codec
Профиль формата : LC
Идентификатор кодека : 40
Продолжительность : 5 м. 2 с.
Вид битрейта : Переменный
Битрейт : 151 Кбит/сек
Максимальный битрейт : 205 Кбит/сек
Каналы : 2 канала
Расположение каналов : Front: L R
Частота : 44,1 КГц
Метод сжатия : С потерями
Размер потока : 5,45 Мбайт (15%)
Дата кодирования : UTC 2011-10-03 05:42:45
Дата пометки : UTC 2011-10-03 05:42:46



Показать сообщения:    

Текущее время: 03-Дек 14:38

Часовой пояс: UTC + 3


Вы не можете начинать темы
Вы не можете отвечать на сообщения
Вы не можете редактировать свои сообщения
Вы не можете удалять свои сообщения
Вы не можете голосовать в опросах
Вы не можете прикреплять файлы к сообщениям
Вы не можете скачивать файлы