Капучино / Cappuccino (Юло Пикков / Ülo Pikkov) [1996, Мультфильм для взрослых, DVDRip]


 

[Цитировать]

Капучино / Cappuccino
Страна: Эстония
Жанр: Мультфильм для взрослых
Продолжительность: 00:04:21
Год выпуска: 1996
Перевод: Не требуется
Русские субтитры: нет
Режиссёр: Юло Пикков / Ülo Pikkov
Описание: О человеке, о мухе и о полете. Лучший рисунок на студенческом анимационном фестивале в Оттаве 1997г.
Семпл: http://zalil.ru/31784998
Качество: DVDRip
Формат: AVI
Видео: 640x480 (1.33:1), 29.970 fps, XviD Final 1.0 (build 34) ~2070 kbps avg, 0.23 bit/pixel
Аудио: 48 kHz, MPEG Layer 3, 2 ch, ~128.00 kbps avg
Субтитры: отсутствуют

Подробные технические данные

VideoID : 0Format : MPEG-4 VisualFormat profile : Advanced Simple@L5Format settings, BVOP : 1Format settings, QPel : NoFormat settings, GMC : No warppointsFormat settings, Matrix : CustomCodec ID : XVIDCodec ID/Hint : XviDDuration : 4mn 21sBit rate : 2 071 KbpsWidth : 640 pixelsHeight : 480 pixelsDisplay aspect ratio : 4:3Frame rate : 29.970 fpsColor space : YUVChroma subsampling : 4:2:0Bit depth : 8 bitsScan type : ProgressiveCompression mode : LossyBits/(Pixel*Frame) : 0.225Stream size : 64.5 MiB (94%)Writing library : XviD 1.0.0 (UTC 2004-05-09)
AudioID : 1Format : MPEG AudioFormat version : Version 1Format profile : Layer 3Mode : Joint stereoCodec ID : 55Codec ID/Hint : MP3Duration : 4mn 21sBit rate mode : ConstantBit rate : 128 KbpsChannel(s) : 2 channelsSampling rate : 48.0 KHzCompression mode : LossyStream size : 3.99 MiB (6%)Alignment : Aligned on interleavesInterleave, duration : 33 ms (1.00 video frame)Interleave, preload duration : 504 ms

Скриншоты




Показать сообщения:    

Текущее время: 11-Дек 16:51

Часовой пояс: UTC + 3


Вы не можете начинать темы
Вы не можете отвечать на сообщения
Вы не можете редактировать свои сообщения
Вы не можете удалять свои сообщения
Вы не можете голосовать в опросах
Вы не можете прикреплять файлы к сообщениям
Вы не можете скачивать файлы