Бермуды / Bermuda (Юло Пикков / Ülo Pikkov, Мильярд Килк / Miljard Kilk) [1998, Мультфильм для взрослых, DVDRip]


 

[Цитировать]

Бермуды / Bermuda
Страна: Эстония
Жанр: Мультфильм для взрослых
Продолжительность: 00:11:11
Год выпуска: 1998
Перевод: Не требуется
Русские субтитры: нет
Режиссёр: Юло Пикков / Ülo Pikkov, Мильярд Килк / Miljard Kilk
Описание: О романтической истории любви одного моряка и русалки...
Автор постера - fartuna158
Семпл: http://zalil.ru/31785348
Качество: DVDRip
Формат: AVI
Видео: 640x480 (1.33:1), 29.970 fps, XviD Final 1.0 (build 34) ~1142 kbps avg, 0.12 bit/pixel
Аудио: 48 kHz, MPEG Layer 3, 2 ch, ~128.00 kbps avg
Субтитры: отсутствуют

Подробные технические данные

VideoID : 0Format : MPEG-4 VisualFormat profile : Advanced Simple@L5Format settings, BVOP : 1Format settings, QPel : NoFormat settings, GMC : No warppointsFormat settings, Matrix : CustomCodec ID : XVIDCodec ID/Hint : XviDDuration : 11mn 11sBit rate : 1 142 KbpsWidth : 640 pixelsHeight : 480 pixelsDisplay aspect ratio : 4:3Frame rate : 29.970 fpsColor space : YUVChroma subsampling : 4:2:0Bit depth : 8 bitsScan type : ProgressiveCompression mode : LossyBits/(Pixel*Frame) : 0.124Stream size : 91.4 MiB (89%)Writing library : XviD 1.0.0 (UTC 2004-05-09)
AudioID : 1Format : MPEG AudioFormat version : Version 1Format profile : Layer 3Mode : Joint stereoMode extension : MS StereoCodec ID : 55Codec ID/Hint : MP3Duration : 11mn 11sBit rate mode : ConstantBit rate : 128 KbpsChannel(s) : 2 channelsSampling rate : 48.0 KHzCompression mode : LossyStream size : 10.2 MiB (10%)Alignment : Aligned on interleavesInterleave, duration : 33 ms (1.00 video frame)Interleave, preload duration : 504 ms

Скриншоты




Показать сообщения:    

Текущее время: 07-Дек 19:26

Часовой пояс: UTC + 3


Вы не можете начинать темы
Вы не можете отвечать на сообщения
Вы не можете редактировать свои сообщения
Вы не можете удалять свои сообщения
Вы не можете голосовать в опросах
Вы не можете прикреплять файлы к сообщениям
Вы не можете скачивать файлы