Стул Эйми / Chair Amie (Пьер Адриен / Pierre Adrien) [2009 г., короткометражный анимационный фильм, WEBRip-AVC (720)]


 

[Цитировать]

-Стул ЭймиChair Amie- Год выпуска: 2010
Страна: Франция
Жанр: короткометражный анимационный фильм / animated short film
Продолжительность: 00:03:40
Перевод: Не требуется
субтитры: отсутствуют- Режиссер: Пьер Адриен / Pierre Adrien- Описание: У женщины есть односуточная любовная ночь. На следующее утро она просыпается от жестокой .... постели видя вокруг себя кишечную гостиницу и всё вокруг окровавленно, что привело её в ужас.- Качество: WEBRip-AVC (720)
Формат: MP4
Видео кодек: AVC
Аудио кодек: AAC
Видео: 1 280x720, 25 fps, ~1 800 kbps avg, 0.078 bit/pixel
Аудио: 44.1 kHz, 2ch, ~126 kbps avg
- -

MediaInfo

Общее
Полное имя : C:\Стул Эйми\Chair Amie.2009.WEBRip-AVC (720).mp4
Формат : MPEG-4
Профиль формата : Base Media
Идентификатор кодека : isom
Размер файла : 50,8 Мбайт
Продолжительность : 3 м. 40 с.
Общий поток : 1930 Кбит/сек
Дата кодирования : UTC 2009-10-12 17:46:16
Дата пометки : UTC 2009-10-13 17:46:19
Видео
Идентификатор : 1
Формат : AVC
Формат/Информация : Advanced Video Codec
Профиль формата : High@L3.1
Параметр CABAC формата : Да
Параметр ReFrames формата : 4 кадры
Параметры GOP формата : M=1, N=2
Идентификатор кодека : avc1
Идентификатор кодека/Информация : Advanced Video Coding
Продолжительность : 3 м. 40 с.
Вид битрейта : Переменный
Битрейт : 1800 Кбит/сек
Максимальный битрейт : 4158 Кбит/сек
Ширина : 1280 пикс.
Высота : 720 пикс.
Соотношение сторон : 16:9
Режим частоты кадров : Постоянный
Частота кадров : 25,000 кадр/сек
Цветовое пространство : YUV
Подвыборка цветности : 4:2:0
Битовая глубина : 8 бит
Тип развёртки : Прогрессивная
Бит/(Пиксели*Кадры) : 0.078
Размер потока : 47,4 Мбайт (93%)
Библиотека кодирования : x264 core 72 r1217 5e9ae4c
Настройки программы : cabac=1 / ref=4 / deblock=1:0:0 / analyse=0x3:0x113 / me=hex / subme=7 / psy=1 / psy_rd=1.0:0.0 / mixed_ref=1 / me_range=16 / chroma_me=1 / trellis=1 / 8x8dct=1 / cqm=0 / deadzone=21,11 / chroma_qp_offset=-2 / threads=8 / nr=0 / decimate=1 / mbaff=0 / bframes=4 / b_pyramid=0 / b_adapt=1 / b_bias=0 / direct=3 / wpredb=1 / keyint=75 / keyint_min=25 / scenecut=40 / rc_lookahead=40 / rc=2pass / mbtree=1 / bitrate=1800 / ratetol=1.0 / qcomp=0.60 / qpmin=10 / qpmax=51 / qpstep=4 / cplxblur=20.0 / qblur=0.5 / vbv_maxrate=2700 / vbv_bufsize=9000 / ip_ratio=1.40 / aq=1:1.00
Дата кодирования : UTC 2009-10-12 17:46:16
Дата пометки : UTC 2009-10-12 17:46:19
Аудио
Идентификатор : 2
Формат : AAC
Формат/Информация : Advanced Audio Codec
Профиль формата : LC
Идентификатор кодека : 40
Продолжительность : 3 м. 40 с.
Вид битрейта : Переменный
Битрейт : 126 Кбит/сек
Максимальный битрейт : 163 Кбит/сек
Канал(ы) : 2 канала(ов)
Расположение каналов : Front: L R
Частота : 44,1 КГц
Метод сжатия : С потерями
Размер потока : 3,32 Мбайт (7%)
Дата кодирования : UTC 2009-10-12 17:46:17
Дата пометки : UTC 2009-10-12 17:46:19



Показать сообщения:    

Текущее время: 05-Дек 13:33

Часовой пояс: UTC + 3


Вы не можете начинать темы
Вы не можете отвечать на сообщения
Вы не можете редактировать свои сообщения
Вы не можете удалять свои сообщения
Вы не можете голосовать в опросах
Вы не можете прикреплять файлы к сообщениям
Вы не можете скачивать файлы