Судьба / Destino (Доминик Монфери / Dominique Monfery) [2003, Анимация, Сюрреализм, BDRip] Salvador Dali & Walt Disney Film


 

[Цитировать]

Судьба / Destino | Salvador Dali & Walt Disney Film- Год выпуска: 2003
Страна: США, Франция
Жанр: Анимация, Сюрреализм
Продолжительность: 00:06:31
Перевод: Не требуется
Русские субтитры: нет-Режиссер: Доминик Монфери / Dominique Monfery
Сценарий: Сальвадор Дали, Джон Хенч, Дональд В. Эрнст / Salvador Dalí, John Hench, Donald W. Ernst- -Описание: В 1946 году Дали и Дисней подписали контракт на производство сюрреалистичного мультфильма «Destino». Но между гениальным живописцем и не менее гениальным мультипликатором «разногласия» были неизбежны. Сальвадор Дали запросил баснословную сумму и упорствовал, что до завершения мультфильм не должен являться собственностью Диснея. Закончить работу над мультфильмом Диснею помешали финансовые проблемы, в послевоенные годы аниматор создавал большое количество картин по заказу правительства и почти ничего не зарабатывал. «Дестино» воссоздали из сотен раскадровок, рисунков и набросков, созданных в 1945-м – 1946-м годах. Они хранились в архивах племянника Уолта Диснея, Роя. Он, кстати, вошёл в команду из 25-ти аниматоров, работавших над мультфильмом. Сотрудничество студии Диснея с Дали началось в 40-м году с мультфильма «Фантазия» (ставшего классикой мультипликации), именно тогда основатель знаменитой студии решил, что взаимодействие с художником поможет возвести анимацию в ранг «высокого искусства». После 60-летних мучений «Destino» был завершен — и только в 2003 году увидел свет.-Качество: BDRip [исходник]
Формат: AVI
Видео: 720x400 (1.80:1), 23.976 fps, XviD MPEG-4 ~2095 kbps avg, 0.30 bit/pixel
Аудио: 48 kHz, AC3 Dolby Digital, 2/0 (L,R) ch, ~192 kbps
Субтитры: отсутствуют

MediaInfo

GeneralComplete name : Destino.Salvador_Dali_&_Walt_Disney.2003.BDRip.aviFormat : AVIFormat/Info : Audio Video InterleaveFile size : 107 MiBDuration : 6mn 31sOverall bit rate : 2 297 KbpsMovie name : DestinoDirector : Dominique MonferyWriting application : VirtualDubMod 1.5.10.2 (build 2542/release)Copyright : 1946-2003 Salvador Dali & Walt DisneyComment : BDRip / xfiles / RG Multfilmy /
VideoID : 0Format : MPEG-4 VisualFormat profile : Advanced Simple@L5Format settings, BVOP : 2Format settings, QPel : NoFormat settings, GMC : No warppointsFormat settings, Matrix : CustomMuxing mode : Packed bitstreamCodec ID : DX50Codec ID/Hint : DivX 5Duration : 6mn 31sBit rate : 2 095 KbpsWidth : 720 pixelsHeight : 400 pixelsDisplay aspect ratio : 16:9Frame rate : 23.976 fpsColor space : YUVChroma subsampling : 4:2:0Bit depth : 8 bitsScan type : ProgressiveCompression mode : LossyBits/(Pixel*Frame) : 0.303Stream size : 97.8 MiB (91%)Writing library : XviD 64
AudioID : 1Format : AC-3Format/Info : Audio Coding 3Mode extension : CM (complete main)Codec ID : 2000Duration : 6mn 31sBit rate mode : ConstantBit rate : 192 KbpsChannel(s) : 2 channelsChannel positions : Front: L RSampling rate : 48.0 KHzBit depth : 16 bitsCompression mode : LossyStream size : 8.96 MiB (8%)Alignment : Split accross interleavesInterleave, duration : 42 ms (1.00 video frame)Interleave, preload duration : 500 ms



Показать сообщения:    

Текущее время: 09-Дек 20:29

Часовой пояс: UTC + 3


Вы не можете начинать темы
Вы не можете отвечать на сообщения
Вы не можете редактировать свои сообщения
Вы не можете удалять свои сообщения
Вы не можете голосовать в опросах
Вы не можете прикреплять файлы к сообщениям
Вы не можете скачивать файлы