Судьба / Destino (Доминик Монфери / Dominique Monfery) [2003, Анимация, Сюрреализм, BDRemux 1080p] Salvador Dali & Walt Disney Film


 

[Цитировать]

Судьба / Destino | Salvador Dali & Walt Disney Film- Год выпуска: 2003
Страна: США, Франция
Жанр: Анимация, Сюрреализм
Продолжительность: 00:06:31
Перевод: Не требуется
Русские субтитры: нет-Режиссер: Доминик Монфери / Dominique Monfery
Сценарий: Сальвадор Дали, Джон Хенч, Дональд В. Эрнст / Salvador Dalí, John Hench, Donald W. Ernst- -Описание: В 1946 году Дали и Дисней подписали контракт на производство сюрреалистичного мультфильма «Destino». Но между гениальным живописцем и не менее гениальным мультипликатором «разногласия» были неизбежны. Сальвадор Дали запросил баснословную сумму и упорствовал, что до завершения мультфильм не должен являться собственностью Диснея. Закончить работу над мультфильмом Диснею помешали финансовые проблемы, в послевоенные годы аниматор создавал большое количество картин по заказу правительства и почти ничего не зарабатывал. «Дестино» воссоздали из сотен раскадровок, рисунков и набросков, созданных в 1945-м – 1946-м годах. Они хранились в архивах племянника Уолта Диснея, Роя. Он, кстати, вошёл в команду из 25-ти аниматоров, работавших над мультфильмом. Сотрудничество студии Диснея с Дали началось в 40-м году с мультфильма «Фантазия» (ставшего классикой мультипликации), именно тогда основатель знаменитой студии решил, что взаимодействие с художником поможет возвести анимацию в ранг «высокого искусства». После 60-летних мучений «Destino» был завершен — и только в 2003 году увидел свет.-Качество: BDRemux 1080p
Формат: MKV
Видео: 1920x1080 (16:9), 23.976 fps, AVC, ~31.3Mbps, 0.630 bits/pixel
Аудио: English, 48.0 KHz, AC3, 2 ch, 320 kbps
Субтитры: отсутствуют

MediaInfo

GeneralUnique ID : 254976042877342257650573214261091344629 (0xBFD2997FE6FB048BBCEAD5AB3D11A0F5)Complete name : E:\HD\Mult\DESTINO\Destino.Salvador_Dali_&_Walt_Disney.2003.BDRemux.mkvFormat : MatroskaFormat version : Version 2File size : 1.47 GiBDuration : 6mn 31sOverall bit rate : 32.3 MbpsEncoded date : UTC 2011-07-17 17:58:57Writing application : mkvmerge v4.9.1 ('Ich will') сборка от Jul 11 2011 23:53:15Writing library : libebml v1.2.1 + libmatroska v1.1.1
VideoID : 1Format : AVCFormat/Info : Advanced Video CodecFormat profile : High@L4.1Format settings, CABAC : YesFormat settings, ReFrames : 4 framesCodec ID : V_MPEG4/ISO/AVCDuration : 6mn 31sBit rate mode : VariableBit rate : 31.3 MbpsMaximum bit rate : 38.0 MbpsWidth : 1 920 pixelsHeight : 1 080 pixelsDisplay aspect ratio : 16:9Frame rate : 23.976 fpsColor space : YUVChroma subsampling : 4:2:0Bit depth : 8 bitsScan type : ProgressiveBits/(Pixel*Frame) : 0.630Stream size : 1.43 GiB (97%)Color primaries : BT.709-5, BT.1361, IEC 61966-2-4, SMPTE RP177Transfer characteristics : BT.709-5, BT.1361Matrix coefficients : BT.709-5, BT.1361, IEC 61966-2-4 709, SMPTE RP177
AudioID : 2Format : AC-3Format/Info : Audio Coding 3Mode extension : CM (complete main)Codec ID : A_AC3Duration : 6mn 31sBit rate mode : ConstantBit rate : 320 KbpsChannel(s) : 2 channelsChannel positions : Front: L RSampling rate : 48.0 KHzBit depth : 16 bitsCompression mode : LossyStream size : 14.9 MiB (1%)Language : English



Показать сообщения:    

Текущее время: 06-Дек 22:57

Часовой пояс: UTC + 3


Вы не можете начинать темы
Вы не можете отвечать на сообщения
Вы не можете редактировать свои сообщения
Вы не можете удалять свои сообщения
Вы не можете голосовать в опросах
Вы не можете прикреплять файлы к сообщениям
Вы не можете скачивать файлы