Аллегро нон троппо / Не слишком весело / Allegro non troppo (Бруно Бозетто / Bruno Bozzetto) [1976, Италия, авторское кино, музыкальная сатира, анимация, DVDRip] VO + original (ita)


 

[Цитировать]

Аллегро нон троппо / Не слишком весело
Allegro non troppo- Страна: Италия
Жанр: авторское кино, музыкальная сатира, анимация
Год выпуска: 1976
Продолжительность: 01:21:10
Перевод: Любительский (одноголосый закадровый)
Cубтитры: нет
Оригинальная аудиодорожка: итальянский
Режиссер: Бруно Бозетто / Bruno Bozzetto
В ролях: Нестор Гарай / Nestor Garay (The Orchestra Master), Маурицио Микели / Maurizio Micheli (The Presenter), Маурицио Никетти / Maurizio Nichetti (The Animator), Марилуиза Джованнини / Marialuisa Giovannini (The Cleaning Girl)
Описание (от иван7805): Вообще-то название фильма «Allegro non troppo» не нуждается в переводе, как не нуждаются в нем уже давно вошедшие в культурный обиход музыкальные термины - скерцо, анданте, престо, аллегретто; ведь именно музыка (а точнее – классическая музыка), является основообразующей частью фильма. Но если рассматривать этот фильм не как «сборку» музыкальных номеров в визуальном переложении (каковой, например, является диснеевская «Фантазия»), а некую историю, рассказываемую нам персонажами с привлечением анимации, то русский перевод названия – «Не слишком весело» оказывается весьма кстати. Если продолжить сравнение с «Фантазией», к которой нас достаточно ехидно отсылают авторы фильма в самом начале, то нельзя не заметить того, что новаторская для 1940 года картина на самом деле – несколько короткометражек, произвольно объединенных вместе только благодаря исполнению OST (original soundtrack) (да простят меня тени великих композиторов!) оркестром Леопольда Стоковского. А в «Аллегро нон троппо» игровое обрамление музыкально-анимационных номеров служит не только для объединения их в одно целое, но и разворачивает перед нами то мило-ироничную, то едко-сатирическую историю взаимоотношений художника и общества, вызывая в нашей памяти эпизоды «Репетиции оркестра» Федерико Феллини, которую, впрочем, великий маэстро снимет только несколькими годами позже.

Содержание фильма

Итак, организатор съемок этого фильма, скромно именующий себя одним из его создателей, обещает нам незабываемое зрелище, которое навсегда войдет в историю кино. Ведь в его распоряжении есть замечательный оркестр, талантливый дирижер, и самое главное – «истинный, свободный художник, свободный от всех условностей, от всех компромиссов, аниматор, способный на свободное самовыражение». И не беда, что оркестр целиком состоит из дам весьма преклонного возраста – привет великому Антонио Вивальди и его женским ансамблям из раскаявшихся девиц с бурным прошлым (читайте «Концерт барокко» Алехо Карпентьера). Не беда, что дирижер – самовлюбленный, грубый и деспотичный тип, тиранящий оркестранток (привет Феллини). Ведь есть художник, который, скованный (в прямом смысле!) контрактом, пять лет провисел на крюке, вбитом в стену темницы, дожидаясь своего великого дня – он ведь так жаждет творить! А если его еще «подбодрить» при помощи девицы определенной профессии (эпизод, вырезанный целомудренными американскими прокатчиками) – то непременно получится шедевр кинематографа.
Он и получился.
В фильме звучат:
"Послеполуденный отдых фавна", Клод Дебюсси
"Славянский танец No. 7 Op. 46", Антонин Дворжак
"Болеро", Морис Равель
"Грустный вальс", Ян Сибелиус
"Концерт до мажор для дуэта гобоев, дуэта кларнетов и струнных", Антонио Вивальди
"Жар-птица", Игорь Стравинский
Награда: Специальный приз David di Donatello 1978.
Информация о фильме: http://www.imdb.com/title/tt0074121/
Сэмпл: http://multi-up.com/516969
Качество видео: DVDRip
Формат видео: AVI
Видео: XviD 672x544 (1.24:1), 25 fps, ATI YVU12 4:2:0 Planar ~2104 kbps avg, 0.23 bit/pixel
Аудио 1: Русский (48 kHz, AC3 Dolby Digital, 2/0 (L,R) ch, ~192 kbps)
Аудио 2: Italian (48 kHz, AC3 Dolby Digital, 2/0 (L,R) ch, ~192 kbps)

MediaInfo

Полное имя : H:\My Torrents\[apreder]Allegro_non_troppo(1975)DVDRip.avi
Формат : AVI
Формат/Информация : Audio Video Interleave
Размер файла : 1,42 Гбайт
Продолжительность : 1 ч. 21 м.
Общий поток : 2504 Кбит/сек
Программа кодирования : VirtualDubMod 1.5.10.3 | www.virtualdub-fr.org || (build 2550/release)
Библиотека кодирования : VirtualDubMod build 2550/release
Видео
Идентификатор : 0
Формат : MPEG-4 Visual
Профиль формата : Advanced Simple@L5
Параметр BVOP формата : 1
Параметр QPel формата : Нет
Параметр GMC формата : Без точки перехода
Параметр матрицы формата : Default (H.263)
Режим смешивания : Сжатый битовый поток
Идентификатор кодека : XVID
Идентификатор кодека/Подсказка : XviD
Продолжительность : 1 ч. 21 м.
Битрейт : 2106 Кбит/сек
Ширина : 672 пикс.
Высота : 544 пикс.
Соотношение сторон : 5:4
Частота кадров : 25,000 кадр/сек
Цветовое пространство : YUV
Подвыборка цветности : 4:2:0
Битовая глубина : 8 бит
Тип развёртки : Прогрессивная
Метод сжатия : С потерями
Бит/(Пиксели*Кадры) : 0.230
Размер потока : 1,19 Гбайт (84%)
Библиотека кодирования : XviD 1.2.1 (UTC 2008-12-04)
Аудио #1
Идентификатор : 1
Формат : AC-3
Формат/Информация : Audio Coding 3
Расширение режима : CM (complete main)
Идентификатор кодека : 2000
Продолжительность : 1 ч. 21 м.
Вид битрейта : Постоянный
Битрейт : 192 Кбит/сек
Каналы : 2 канала
Расположение каналов : Front: L R
Частота : 48,0 КГц
Битовая глубина : 16 бит
Метод сжатия : С потерями
Размер потока : 111 Мбайт (8%)
Выравнивание : Разделение по промежуткам
Продолжительность промежутка : 40 мс. (1,00 видеокадр)
Время предзагрузки промежутка : 500 ms
Аудио #2
Идентификатор : 2
Формат : AC-3
Формат/Информация : Audio Coding 3
Расширение режима : CM (complete main)
Идентификатор кодека : 2000
Продолжительность : 1 ч. 21 м.
Вид битрейта : Постоянный
Битрейт : 192 Кбит/сек
Каналы : 2 канала
Расположение каналов : Front: L R
Частота : 48,0 КГц
Битовая глубина : 16 бит
Метод сжатия : С потерями
Размер потока : 111 Мбайт (8%)
Выравнивание : Разделение по промежуткам
Продолжительность промежутка : 40 мс. (1,00 видеокадр)
Время предзагрузки промежутка : 500 ms

Скриншот c названием фильма

Скриншоты


Обложки Tutto Bozzetto 4-DVD Box Set + R1




Показать сообщения:    

Текущее время: 06-Дек 15:15

Часовой пояс: UTC + 3


Вы не можете начинать темы
Вы не можете отвечать на сообщения
Вы не можете редактировать свои сообщения
Вы не можете удалять свои сообщения
Вы не можете голосовать в опросах
Вы не можете прикреплять файлы к сообщениям
Вы не можете скачивать файлы