Лицо / Face (Хендрик Дузолиер / Hendrick Dusollier) [2007, Франция, анимация, короткометражный, SATRip]


 

[Цитировать]

Лицо / Face- Страна: Франция
Жанр: анимация, короткометражный
Год выпуска: 2007
Продолжительность: 00:05:26
Перевод: нет диалога
Cубтитры: нет
Режиссер: Хендрик Дузолиер / Hendrick
Описание:
Лицо человека претерпевает впечатляющий ряд преобразований с
помощью компьютерной анимации и живого воображения.

Качество видео: SATRip
Формат видео: AVI
Видео: DivX 5, 640x480 (4/3), 25.000 fps, 1 904 Kbps (0.248 bit/pixel)
Аудио: MP3, 48.0 KHz, 2 ch, 128 Kbps, CBR

MediaInfo

Общее
Полное имя : F:\МОИ РАЗДАЧИ\Face.SatRip.avi
Формат : AVI
Формат/Информация : Audio Video Interleave
Размер файла : 77,7 Мбайт
Продолжительность : 5 м. 19 с.
Общий поток : 2042 Кбит/сек
Библиотека кодирования : VirtualDub build 32839/release
Видео
Идентификатор : 0
Формат : MPEG-4 Visual
Параметр BVOP формата : 1
Параметр QPel формата : Нет
Параметр GMC формата : Без точки перехода
Параметр матрицы формата : Default (H.263)
Режим смешивания : Сжатый битовый поток
Идентификатор кодека : DX50
Идентификатор кодека/Подсказка : DivX 5
Продолжительность : 5 м. 19 с.
Битрейт : 1904 Кбит/сек
Ширина : 640 пикс.
Высота : 480 пикс.
Соотношение сторон : 4:3
Частота кадров : 25,000 кадр/сек
Цветовое пространство : YUV
Подвыборка цветности : 4:2:0
Битовая глубина : 8 бит
Тип развёртки : Прогрессивная
Метод сжатия : С потерями
Бит/(Пиксели*Кадры) : 0.248
Размер потока : 72,4 Мбайт (93%)
Библиотека кодирования : DivX 5.2.1 (WaffleDay) (UTC 2004-09-08)
Аудио
Идентификатор : 1
Формат : MPEG Audio
Версия формата : Version 1
Профиль формата : Layer 3
Режим : Joint stereo
Расширение режима : MS Stereo
Идентификатор кодека : 55
Идентификатор кодека/Подсказка : MP3
Продолжительность : 5 м. 19 с.
Вид битрейта : Постоянный
Битрейт : 128 Кбит/сек
Канал(ы) : 2 канала(ов)
Частота : 48,0 КГц
Метод сжатия : С потерями
Размер потока : 4,87 Мбайт (6%)
Выравнивание : Разделение по промежуткам
Продолжительность промежутка : 40 мс. (1,00 видеокадр)
Время предзагрузки промежутка : 500 ms
Библиотека кодирования : LAME3.98.2

Скриншот c названием фильма

Скриншоты





Показать сообщения:    

Текущее время: 08-Дек 09:00

Часовой пояс: UTC + 3


Вы не можете начинать темы
Вы не можете отвечать на сообщения
Вы не можете редактировать свои сообщения
Вы не можете удалять свои сообщения
Вы не можете голосовать в опросах
Вы не можете прикреплять файлы к сообщениям
Вы не можете скачивать файлы