Харви Крампет / Harvie Krumpet (Адам Бенжамин Эллиот / Adam Elliot) [2003, анимация, трагикомедия, DVDRip] VO (OzzTV)


 

[Цитировать]

Харви Крампет / Harvie Krumpet- -Страна: Австралия
Жанр: анимация, трагикомедия
Год выпуска: 2003
Продолжительность: 22 мин
Перевод: Профессиональный (одноголосый закадровый) OzzTV
Cубтитры: нет
Режиссер: Адам Бенжамин Эллиот / Adam Elliot-Описание: С самого рождения главный герой фильма страдает серьезным неврологически расстройством. Его семья погибает, а сам он иммигрирует в Австралию, но и там его продолжают преследовать болезни и неудачи. В конце концов Харви Крампет примиряется с судьбой и учится радоваться жизни несмотря ни на что.-За мультфильм Харви Крампет (Harvie Krumpet) режиссер Адам Эллиот (Adam Elliot) получил премию Оскар в 2004 году в номинации «Лучший короткометражный анимационный фильм».-Качество видео: DVDRip
Формат видео: AVI
Видео: 720*400 (1.80), 25 fps, XviD MPEG-4, ~1355 kbps, 0.19 bit/pixel
Аудио Rus: 44.1 kHz, MPEG Layer 3, 2 ch, ~128 kbps
Аудио Eng: 48 kHz, MPEG Layer 3, 2 ch, ~114 kbps--Релиз:
Перевод: Klilogla
Озвучка: Skleroz-
-

MediaInfo

General
Complete name                    : E:\RuTracker.Org\Harvie_Krumpet. Ozz.TV.avi
Format                           : AVI
Format/Info                      : Audio Video Interleave
File size                        : 254 MiB
Duration                         : 22mn 2s
Overall bit rate                 : 1 611 Kbps
Writing application              : VirtualDubMod 1.5.10.2 (build 2540/release)
Writing library                  : VirtualDubMod build 2540/release
Video
ID                               : 0
Format                           : MPEG-4 Visual
Format profile                   : Advanced Simple@L5
Format settings, BVOP            : Yes
Format settings, QPel            : No
Format settings, GMC             : No warppoints
Format settings, Matrix          : Custom
Codec ID                         : XVID
Codec ID/Hint                    : XviD
Duration                         : 22mn 2s
Bit rate                         : 1 350 Kbps
Width                            : 720 pixels
Height                           : 400 pixels
Display aspect ratio             : 16:9
Frame rate                       : 25.000 fps
Resolution                       : 8 bits
Colorimetry                      : 4:2:0
Scan type                        : Progressive
Bits/(Pixel*Frame)               : 0.187
Stream size                      : 213 MiB (84%)
Writing library                  : XviD 1.2.0.dev47 (UTC 2006-11-01)
Audio #1
ID                               : 1
Format                           : MPEG Audio
Format version                   : Version 1
Format profile                   : Layer 3
Codec ID                         : 55
Codec ID/Hint                    : MP3
Duration                         : 22mn 2s
Bit rate mode                    : Constant
Bit rate                         : 128 Kbps
Channel(s)                       : 2 channels
Sampling rate                    : 44.1 KHz
Stream size                      : 20.2 MiB (8%)
Alignment                        : Split accross interleaves
Interleave, duration             : 40 ms (1.00 video frame)
Interleave, preload duration     : 500 ms
Language                         : English
Audio #2
ID                               : 2
Format                           : MPEG Audio
Format version                   : Version 1
Format profile                   : Layer 3
Format_Settings_Mode             : Joint stereo
Format_Settings_ModeExtension    : MS Stereo
Codec ID                         : 55
Codec ID/Hint                    : MP3
Duration                         : 22mn 2s
Bit rate mode                    : Variable
Bit rate                         : 115 Kbps
Nominal bit rate                 : 128 Kbps
Channel(s)                       : 2 channels
Sampling rate                    : 48.0 KHz
Stream size                      : 18.1 MiB (7%)
Alignment                        : Aligned on interleaves
Interleave, duration             : 24 ms (0.60 video frame)
Interleave, preload duration     : 547 ms
Writing library                  : LAME3.97
Encoding settings                : -m j -V 4 -q 2 -lowpass 17 --abr 128

Скриншоты


-
-



Показать сообщения:    

Текущее время: 05-Дек 19:39

Часовой пояс: UTC + 3


Вы не можете начинать темы
Вы не можете отвечать на сообщения
Вы не можете редактировать свои сообщения
Вы не можете удалять свои сообщения
Вы не можете голосовать в опросах
Вы не можете прикреплять файлы к сообщениям
Вы не можете скачивать файлы