Глаз бури (шторма) / Eye of the Storm (Кристофер Эйлендер / Christopher Alender) [2011, США, анимация, драма, стимпанк, короткий метр, HDRip]


 

[Цитировать]

Глаз шторма / Eye Of The Storm- Страна: США
Жанр: Анимация
Год выпуска: 2011
Продолжительность: 00:05:35
Перевод: Не требуется
Cубтитры: нет
Режиссер: Кристофер Эйлендер / Christopher Alender
В ролях: Кристофер Эйлендер
Описание: Артработа в области визуальных эффектов.
Официальное видео группы Lovett на трек Eye of the Storm с дебютного CDDA Highway Collection [2011]
Official video for Lovett's Eye of the Storm.
Hometown: Parts Unknown, GA
Genres: Rock / Americana / Experimental
Label: Lovers Label
ReverbNation Profile: www.reverbnation.com/lovettmusic

Track Listing

1. The Fear
2. All The Time
3. Heartattack
4. Black Curtain
5. Same Old Song
6. Like A Moving Train
7. Two Lovers
8. Eye Of The Storm
9. Ghost Of Old Highways
Качество видео: HDRip
Формат видео: MP4
Видео: AVC at 2 007 Kbps 1280 x 720 (1.778) at 23.976 fps
Аудио: AAC at 156 Kbps 2 channels, 44.1 KHz

MediaInfo

Format : MPEG-4
Format profile : Base Media
Codec ID : isom
File size : 86.7 MiB
Duration : 5mn 35s
Overall bit rate : 2 166 Kbps
Encoded date : UTC 2011-02-06 14:50:41
Tagged date : UTC 2011-02-07 14:50:43
Video
ID : 1
Format : AVC
Format/Info : Advanced Video Codec
Format profile : High@L3.1
Format settings, CABAC : Yes
Format settings, ReFrames : 4 frames
Codec ID : avc1
Codec ID/Info : Advanced Video Coding
Duration : 5mn 35s
Bit rate mode : Variable
Bit rate : 2 007 Kbps
Maximum bit rate : 5 496 Kbps
Width : 1 280 pixels
Height : 720 pixels
Display aspect ratio : 16:9
Frame rate mode : Constant
Frame rate : 23.976 fps
Color space : YUV
Chroma subsampling : 4:2:0
Bit depth : 8 bits
Scan type : Progressive
Bits/(Pixel*Frame) : 0.091
Stream size : 80.3 MiB (93%)
Writing library : Vimeo Encoder
Encoded date : UTC 2011-02-06 14:50:41
Tagged date : UTC 2011-02-06 14:50:42
Audio
ID : 2
Format : AAC
Format/Info : Advanced Audio Codec
Format profile : LC
Codec ID : 40
Duration : 5mn 35s
Bit rate mode : Variable
Bit rate : 156 Kbps
Maximum bit rate : 216 Kbps
Channel(s) : 2 channels
Channel positions : Front: L R
Sampling rate : 44.1 KHz
Compression mode : Lossy
Stream size : 6.26 MiB (7%)
Encoded date : UTC 2011-02-06 14:50:42
Tagged date : UTC 2011-02-06 14:50:42

Скриншот c названием фильма

Скриншоты

02 The Making Of - Eye Of The Storm
Behind the scenes of Eye Of The Storm. See how director Chris Alender and the team at Soapbox Films created the lush and vibrant steam punk world in the film.
Eye Of The Storm is a short film based on the song of the same by Lovett, from the album Highway Collection, available March 15, 2011.
Год выпуска: 2011
Продолжительность: 00:03:02
Качество видео: HDRip
Формат видео: MP4
Видео: AVC at 2 005 Kbps 1280 x 720 (1.778) at 29.970 fps
Аудио: AAC at 156 Kbps 2 channels, 44.1 KHz

Скриншоты




Показать сообщения:    

Текущее время: 05-Дек 01:23

Часовой пояс: UTC + 3


Вы не можете начинать темы
Вы не можете отвечать на сообщения
Вы не можете редактировать свои сообщения
Вы не можете удалять свои сообщения
Вы не можете голосовать в опросах
Вы не можете прикреплять файлы к сообщениям
Вы не можете скачивать файлы