Человек - единственная птица, которая носит свою клетку / L’homme est le seul oiseau qui porte se cage (Клод Вайс / Claude Weiss) [2008, Франция, анимация,фантастика, SATRip]


 

[Цитировать]

Человек - единственная птица, которая носит свою клетку
L’homme est le seul oiseau qui porte se cage- Страна: Франция
Жанр: анимация,фантастика
Год выпуска: 2008
Продолжительность: 00:11:26
Перевод: Не требуется
Cубтитры: нет
Режиссер:
Клод Вайс/ Claude Weiss
Описание:
Холодный мир.На улицах люди, чьи головы заменили клетки содержащие шар.
Все эти люди живут в стандартизованной форме.
Некоторые из них пытаются выпустить воздушный шар на волю.
Но каждая попытка всегда обречены на провал.
Человек ищет способ освободиться.

Доп. информация:

Качество видео: SATRip
Формат видео: AVI
Видео: XviD, 704x384 (16/9), 25.000 fps, 1 825 Kbps (0.270 bit/pixel)
Аудио: MP3, 48.0 KHz, 2 ch, 128 Kbps, CBR

MediaInfo

Общее
Полное имя : F:\МОИ РАЗДАЧИ\L’homme.est.le.seul.SatRip.avi
Формат : AVI
Формат/Информация : Audio Video Interleave
Размер файла : 161 Мбайт
Продолжительность : 11 м.
Общий поток : 1963 Кбит/сек
Программа кодирования : VirtualDubMod 1.5.10.3 | www.virtualdub-fr.org || (build 2550/release)
Библиотека кодирования : VirtualDubMod build 2550/release
Видео
Идентификатор : 0
Формат : MPEG-4 Visual
Профиль формата : Advanced Simple@L5
Параметр BVOP формата : 1
Параметр QPel формата : Нет
Параметр GMC формата : Без точки перехода
Параметр матрицы формата : Default (MPEG)
Идентификатор кодека : XVID
Идентификатор кодека/Подсказка : XviD
Продолжительность : 11 м.
Битрейт : 1825 Кбит/сек
Ширина : 704 пикс.
Высота : 384 пикс.
Соотношение сторон : 16:9
Частота кадров : 25,000 кадр/сек
Цветовое пространство : YUV
Подвыборка цветности : 4:2:0
Битовая глубина : 8 бит
Тип развёртки : Прогрессивная
Метод сжатия : С потерями
Бит/(Пиксели*Кадры) : 0.270
Размер потока : 149 Мбайт (93%)
Библиотека кодирования : XviD 1.2.1 (UTC 2008-12-04)
Аудио
Идентификатор : 1
Формат : MPEG Audio
Версия формата : Version 1
Профиль формата : Layer 3
Идентификатор кодека : 55
Идентификатор кодека/Подсказка : MP3
Продолжительность : 11 м.
Вид битрейта : Постоянный
Битрейт : 128 Кбит/сек
Канал(ы) : 2 канала(ов)
Частота : 48,0 КГц
Метод сжатия : С потерями
Размер потока : 10,5 Мбайт (7%)
Выравнивание : Соединение по промежуткам
Продолжительность промежутка : 40 мс. (1,00 видеокадр)
Время предзагрузки промежутка : 504 ms
Библиотека кодирования : LAME3.98r
Настройки программы : -m s -V 4 -q 2 -lowpass 17 -b 128

Скриншот c названием фильма




Показать сообщения:    

Текущее время: 04-Дек 13:11

Часовой пояс: UTC + 3


Вы не можете начинать темы
Вы не можете отвечать на сообщения
Вы не можете редактировать свои сообщения
Вы не можете удалять свои сообщения
Вы не можете голосовать в опросах
Вы не можете прикреплять файлы к сообщениям
Вы не можете скачивать файлы