Мэри и Макс / Mary and Max (Адам Бенжамин Эллиот / Adam Elliot) [2009, Австралия, комедия, драма, мультфильм, BDRip-AVC] MVO (R5) + Original Eng + Descriptive Audio + Comments + Subs (Rus, Eng)


 

[Цитировать]

Мэри и Макс / Mary and Max- Страна: Австралия
Студия: MPI Media Group
Жанр: анимация, комедийная драма
Продолжительность: 1:32:15-Перевод: Профессиональный (многоголосый, закадровый - лицензия)
Навигация по главам: есть
Cубтитры: русские, английские-Режиссер: Адам Бенжамин Эллиот / Adam Elliot
Сценарий: Адам Бенжамин Эллиот
Продюсер: Мелани Кумбс, Айэйн Каннинг, Ричард Пейтен, ...
Оператор: Джералд Томпсон
Композитор: Дэйл Корнелиус
Художник: Адам Бенжамин Эллиот, Крэйг Фисон, Изабель Пеппард, ...
Монтаж: Билл Мерфи-В ролях: Тони Коллетт, Филип Сеймур Хоффман, Эрик Бана, Бэрри Хамфриз, Бетани Витмор, Рени Гейер, Йен «Молли» Мелдрам, Джон Флаус, Джули Форсайт, Майкл Иенна и другие-Описание: История отношений 8-летней девочки Мэри Динкль, которая скучает в пригороде далекого австралийского Мельбурна, и Макса Хоровица, 44-летнего одинокого еврея, жителя шумного нью-йоркского хаоса. Разделенные разницей в возрасте и двумя континентами, Мэри и Макс проносят свою необычную дружбу через годы.-Бюджет: AUD 8 240 000
Премьера в мире / в России / релиз на DVD: 15 января 2009 / 3 декабря 2009, «Русский репортаж» / 29 июля 2010, «Новый Диск»
Сборы в России: $37 089

Знаете ли вы, что...

  • Фильм основан на реальных событиях.

Награды и номинации

5 побед и 2 номинацииБерлинский кинофестиваль, 2009 год
  • Хрустальный медведь - особое упоминание - лучший художественный фильм конкурса для юношества Поколение 14+ [победитель]

x264 log

video.avs: 1260x688, 48000/2002 fps, 132730 frames
y4m [info]: 1260x688p 1:1 @ 24000/1001 fps (cfr)
x264 [info]: using SAR=1/1
x264 [info]: using cpu capabilities: MMX2 SSE2Fast SSSE3 FastShuffle SSE4.2
x264 [info]: profile High, level 4.0
x264 [info]: frame I:1191  Avg QP:15.43  size:106426  PSNR Mean Y:47.68 U:54.13 V:55.15 Avg:48.98 Global:48.42
x264 [info]: frame P:27559 Avg QP:17.31  size: 22729  PSNR Mean Y:46.08 U:52.78 V:53.92 Avg:47.40 Global:46.58
x264 [info]: frame B:103980 Avg QP:21.02  size:  4990  PSNR Mean Y:45.57 U:52.66 V:53.80 Avg:46.92 Global:46.22
x264 [info]: consecutive B-frames:  2.0%  1.9%  6.8% 14.9% 14.3% 51.7%  8.3%
x264 [info]: mb I  I16..4:  6.2% 71.3% 22.5%
x264 [info]: mb P  I16..4:  0.8%  3.7%  0.9%  P16..4: 36.3% 22.3% 12.8%  0.0%  0.0%    skip:23.1%
x264 [info]: mb B  I16..4:  0.1%  0.2%  0.1%  B16..8: 31.0%  6.1%  1.4%  direct: 2.1%  skip:59.0%  L0:41.0% L1:48.6% BI:10.4%
x264 [info]: 8x8 transform intra:68.3% inter:56.4%
x264 [info]: direct mvs  spatial:100.0% temporal:0.0%
x264 [info]: coded y,uvDC,uvAC intra: 83.5% 51.6% 26.7% inter: 9.8% 3.7% 0.3%
x264 [info]: i16 v,h,dc,p: 50% 12%  8% 30%
x264 [info]: i8 v,h,dc,ddl,ddr,vr,hd,vl,hu: 12% 13%  9%  8% 11% 11% 12% 10% 13%
x264 [info]: i4 v,h,dc,ddl,ddr,vr,hd,vl,hu: 10% 11%  5%  9% 15% 12% 14% 11% 14%
x264 [info]: i8c dc,h,v,p: 45% 30% 17%  8%
x264 [info]: Weighted P-Frames: Y:4.9% UV:1.5%
x264 [info]: ref P L0: 53.7% 10.5% 16.3%  5.9%  4.7%  3.5%  3.1%  1.9%  0.3%  0.0%
x264 [info]: ref B L0: 72.0% 13.2%  6.9%  3.4%  2.5%  1.4%  0.6%
x264 [info]: ref B L1: 90.8%  9.2%
x264 [info]: SSIM Mean Y:0.9876854 (19.096db)
x264 [info]: PSNR Mean Y:45.696 U:52.698 V:53.839 Avg:47.037 Global:46.311 kb/s:1838.19
[ 0:54:31,64 26.03.2011] ======== encoded 132730 frames, 7.33 fps, 1838.19 kb/s ========

MediaInfo

General
Unique ID                        : 231454183105474857657417145247858651793 (0xAE2074466DAB52708ACBB4726D9F7291)
Complete name                    : \Mary.And.Max.2009.BDRip-AVC.Rus.Eng.Comments.Subs.tRuAVC.mkv
Format                           : Matroska
File size                        : 2.01 GiB
Duration                         : 1h 32mn
Overall bit rate                 : 3 121 Kbps
Encoded date                     : UTC 2011-03-26 10:23:25
Writing application              : mkvmerge v4.0.0 ('The Stars were mine') built on Jun  6 2010 16:18:42
Writing library                  : libebml v1.0.0 + libmatroska v1.0.0
Video
ID                               : 1
Format                           : AVC
Format/Info                      : Advanced Video Codec
Format profile                   : High@L4.0
Format settings, CABAC           : Yes
Format settings, ReFrames        : 8 frames
Codec ID                         : V_MPEG4/ISO/AVC
Duration                         : 1h 32mn
Bit rate                         : 1 779 Kbps
Width                            : 1 260 pixels
Height                           : 688 pixels
Display aspect ratio             : 16:9
Frame rate                       : 23.976 fps
Color space                      : YUV
Chroma subsampling               : 4:2:0
Bit depth                        : 8 bits
Scan type                        : Progressive
Bits/(Pixel*Frame)               : 0.086
Stream size                      : 1.15 GiB (57%)
Title                            : Мэри и Макс / Mary and Max - by Juicy_J - x264; High@L4.0; 1260x688 (16:9); ~1838 kbps; 23.976 fps; 0.087 b/px
Writing library                  : x264 core 114 r1913 5fd3dce
Encoding settings                : cabac=1 / ref=8 / deblock=1:-2:-1 / analyse=0x3:0x113 / me=umh / subme=10 / psy=1 / psy_rd=0.75:0.00 / mixed_ref=1 / me_range=60 / chroma_me=1 / trellis=2 / 8x8dct=1 / cqm=0 / deadzone=21,11 / fast_pskip=1 / chroma_qp_offset=-2 / threads=12 / sliced_threads=0 / nr=0 / decimate=1 / interlaced=0 / constrained_intra=0 / bframes=6 / b_pyramid=2 / b_adapt=2 / b_bias=0 / direct=3 / weightb=1 / open_gop=0 / weightp=2 / keyint=250 / keyint_min=23 / scenecut=40 / intra_refresh=0 / rc=crf / mbtree=0 / crf=18.0 / qcomp=0.65 / qpmin=0 / qpmax=69 / qpstep=4 / ip_ratio=1.40 / pb_ratio=1.30 / aq=1:0.90
Language                         : English
Matrix coefficients              : BT.709-5, BT.1361, IEC 61966-2-4 709, SMPTE RP177
Audio #1
ID                               : 2
Format                           : AC-3
Format/Info                      : Audio Coding 3
Mode extension                   : CM (complete main)
Codec ID                         : A_AC3
Duration                         : 1h 32mn
Bit rate mode                    : Constant
Bit rate                         : 448 Kbps
Channel(s)                       : 6 channels
Channel positions                : Front: L C R, Side: L R, LFE
Sampling rate                    : 48.0 KHz
Bit depth                        : 16 bits
Compression mode                 : Lossy
Stream size                      : 296 MiB (14%)
Title                            : Русский (MVO; Лицензия); AC3; CBR 448 kbps; 6 ch; 48 kHz
Language                         : Russian
Audio #2
ID                               : 3
Format                           : AC-3
Format/Info                      : Audio Coding 3
Mode extension                   : CM (complete main)
Codec ID                         : A_AC3
Duration                         : 1h 32mn
Bit rate mode                    : Constant
Bit rate                         : 448 Kbps
Channel(s)                       : 6 channels
Channel positions                : Front: L C R, Side: L R, LFE
Sampling rate                    : 48.0 KHz
Bit depth                        : 16 bits
Compression mode                 : Lossy
Stream size                      : 296 MiB (14%)
Title                            : Английский; AC3; CBR 448 kbps; 6 ch; 48 kHz
Language                         : English
Audio #3
ID                               : 4
Format                           : AC-3
Format/Info                      : Audio Coding 3
Mode extension                   : CM (complete main)
Codec ID                         : A_AC3
Duration                         : 1h 32mn
Bit rate mode                    : Constant
Bit rate                         : 192 Kbps
Channel(s)                       : 2 channels
Channel positions                : Front: L R
Sampling rate                    : 48.0 KHz
Bit depth                        : 16 bits
Compression mode                 : Lossy
Stream size                      : 127 MiB (6%)
Title                            : Английский (Descriptive Audio); AC3; CBR 192 kbps; 2 ch; 48 kHz
Language                         : English
Audio #4
ID                               : 5
Format                           : AC-3
Format/Info                      : Audio Coding 3
Mode extension                   : CM (complete main)
Codec ID                         : A_AC3
Duration                         : 1h 32mn
Bit rate mode                    : Constant
Bit rate                         : 192 Kbps
Channel(s)                       : 2 channels
Channel positions                : Front: L R
Sampling rate                    : 48.0 KHz
Bit depth                        : 16 bits
Compression mode                 : Lossy
Stream size                      : 127 MiB (6%)
Title                            : Английский (Комментарии); AC3; CBR 192 kbps; 2 ch; 48 kHz
Language                         : English
Text #1
ID                               : 6
Format                           : UTF-8
Codec ID                         : S_TEXT/UTF8
Codec ID/Info                    : UTF-8 Plain Text
Title                            : Русские
Language                         : Russian
Text #2
ID                               : 7
Format                           : UTF-8
Codec ID                         : S_TEXT/UTF8
Codec ID/Info                    : UTF-8 Plain Text
Title                            : Английские
Language                         : English
Menu
00:00:00.000                     : en:00:00:00.000
00:05:00.000                     : en:00:05:00.000
00:10:00.000                     : en:00:10:00.000
00:15:00.000                     : en:00:15:00.000
00:20:00.000                     : en:00:20:00.000
00:25:00.000                     : en:00:25:00.000
00:30:00.000                     : en:00:30:00.000
00:35:00.000                     : en:00:35:00.000
00:40:00.000                     : en:00:40:00.000
00:45:00.000                     : en:00:45:00.000
00:50:00.000                     : en:00:50:00.000
00:55:00.000                     : en:00:55:00.000
01:00:00.000                     : en:01:00:00.000
01:05:00.000                     : en:01:05:00.000
01:10:00.000                     : en:01:10:00.000
01:15:00.000                     : en:01:15:00.000
01:20:00.000                     : en:01:20:00.000
01:25:00.000                     : en:01:25:00.000
01:30:00.000                     : en:01:30:00.000
-кинопоиск | imdb | allmovie | sample*
* sample состоит из 5и отрезков по ~20 секунд-Качество: BDRip
Формат: MKV
Видео кодек: x264
Аудио кодек: AC3-Видео: x264; High@L4.0; 1260x688 (16:9); ~1838 kbps; 23.976 fps; 0.087 b/px
Аудио#1: Русский (MVO; Лицензия); AC3; CBR 448 kbps; 6 ch; 48 kHz
Аудио#2: Английский; AC3; CBR 448 kbps; 6 ch; 48 kHz
Аудио#3: Английский (Descriptive Audio); AC3; CBR 192 kbps; 2 ch; 48 kHz
Аудио#4: Английский (Комментарии); AC3; CBR 192 kbps; 2 ch; 48 kHz
Формат субтитров: softsub (SRT)-

Скриншоты:


-Для пользователей CoreAVC: корректное воспроизведение данного релиза декодером CoreAVC версии 1.9.5 и младше без включения CUDA acceleration невозможно. При возникновении артефактов используйте CoreAVC версии не ниже 2.0.



Показать сообщения:    

Текущее время: 10-Дек 21:29

Часовой пояс: UTC + 3


Вы не можете начинать темы
Вы не можете отвечать на сообщения
Вы не можете редактировать свои сообщения
Вы не можете удалять свои сообщения
Вы не можете голосовать в опросах
Вы не можете прикреплять файлы к сообщениям
Вы не можете скачивать файлы