Глаз бури / Eye of the Storm (Кристофер Эйлендер / Christopher Alender / Chris Alender) [2011, США, анимация, драма, стимпанк, короткий метр, DVDRip]


 

[Цитировать]

Глаз бури
Eye of the Storm- Страна: США
Жанр: анимация, драма, стимпанк, короткий метр
Год выпуска: 2011
Продолжительность: 00:05:35
Перевод: Не требуется
Cубтитры: нет
Режиссер: Кристофер Эйлендер / Christopher Alender / Chris Alender
В ролях: Бен Лаветт / Ben Lovett
Описание: Снятый в модном стиле стимпанк фильм о том, как авиатор направляется в эпицентр бури.

Доп. информация: Файл получен через groups.yahoo - от modernist_m. Источник исходного файла не известен, судя по качеству условно выставлен DVDRip. Черные полосы убраны в VirtualDubMOD.
Сэмпл: http://multi-up.com/454250
Качество видео: DVDRip
Формат видео: AVI
Видео: XviD 720x320 (2.25:1), 25 fps, ATI YVU12 4:2:0 Planar ~1790 kbps avg, 0.31 bit/pixel
Аудио: 48 kHz, AC3 Dolby Digital, 2/0 (L,R) ch, ~192 kbps

MediaInfo

Полное имя : H:\My Torrents\[apreder]MM_Eye_of_the_Storm(2011).avi
Формат : AVI
Формат/Информация : Audio Video Interleave
Размер файла : 79,7 Мбайт
Продолжительность : 5 м. 35 с.
Общий поток : 1992 Кбит/сек
Программа кодирования : VirtualDubMod 1.5.10.3 | www.virtualdub-fr.org || (build 2550/release)
Библиотека кодирования : VirtualDubMod build 2550/release
Видео
Идентификатор : 0
Формат : MPEG-4 Visual
Профиль формата : Advanced Simple@L5
Параметр BVOP формата : 1
Параметр QPel формата : Нет
Параметр GMC формата : Без точки перехода
Параметр матрицы формата : Default (H.263)
Режим смешивания : Сжатый битовый поток
Идентификатор кодека : XVID
Идентификатор кодека/Подсказка : XviD
Продолжительность : 5 м. 35 с.
Битрейт : 1791 Кбит/сек
Ширина : 720 пикс.
Высота : 320 пикс.
Соотношение сторон : 2,25:1
Частота кадров : 25,000 кадр/сек
Цветовое пространство : YUV
Подвыборка цветности : 4:2:0
Битовая глубина : 8 бит
Тип развёртки : Прогрессивная
Метод сжатия : С потерями
Бит/(Пиксели*Кадры) : 0.311
Размер потока : 71,6 Мбайт (90%)
Библиотека кодирования : XviD 1.2.1 (UTC 2008-12-04)
Аудио
Идентификатор : 1
Формат : AC-3
Формат/Информация : Audio Coding 3
Расширение режима : CM (complete main)
Идентификатор кодека : 2000
Продолжительность : 5 м. 35 с.
Вид битрейта : Постоянный
Битрейт : 192 Кбит/сек
Канал(ы) : 2 канала(ов)
Расположение каналов : Front: L R
Частота : 48,0 КГц
Битовая глубина : 16 бит
Метод сжатия : С потерями
Размер потока : 7,68 Мбайт (10%)
Выравнивание : Соединение по промежуткам
Продолжительность промежутка : 40 мс. (1,00 видеокадр)
Время предзагрузки промежутка : 512 ms

Скриншот c названием фильма

Скриншоты




Показать сообщения:    

Текущее время: 05-Дек 07:30

Часовой пояс: UTC + 3


Вы не можете начинать темы
Вы не можете отвечать на сообщения
Вы не можете редактировать свои сообщения
Вы не можете удалять свои сообщения
Вы не можете голосовать в опросах
Вы не можете прикреплять файлы к сообщениям
Вы не можете скачивать файлы