Мадагаскар, путевой дневник / Madagascar, carnet de voyage (Бастьен Дюбуа / Bastien Dubois) [2010, Франция, анимация, короткий метр, DVDRip] Sub rus


 

[Цитировать]

Мадагаскар, путевой дневник / Madagascar, carnet de voyage
Страна: Франция
Жанр: анимация, короткий метр
Год выпуска: 2010
Продолжительность: 00:11:06
Перевод: Субтитры
Cубтитры: русские
Оригинальная аудиодорожка: малагасийский
Режиссер: Бастьен Дюбуа / Bastien Dubois
В ролях: анимация
Описание: Путевой дневник, который описывает впечатления европейского путешественника, столкнувшегося с обычаями фамадиханы, обряда перезахоронения умерших. Перелистываются страницы дневника, затем рисунки оживают, а мы наслаждаемся роскошными пейзажами Мадагаскара перед тем, как познакомиться с малагасийской культурой.
Доп. информация: Избранные награды и фестивали:
• Гран-При, 3rd ANIMANIMA: International Animation Festival, 2009
• Специальная премия, 33rd Cinanima: International Animated Film Festival, 2009
• Гран-При, Ottawa International Animation Festival
• Специальный приз жюри, Basauri-Bizkaia International Animation Festival, 2010
Большое спасибо yuraiter
Сэмпл: http://multi-up.com/453578
Качество видео: DVDRip
Формат видео: AVI
Видео: Xvid 720x416 25.00fps 2164kbps [Video 0]
Аудио: MPEG Audio Layer 3 48000Hz stereo 192kbps [Audio 1]
Формат субтитров: softsub (SRT)

MediaInfo

Format : AVI
Format/Info : Audio Video Interleave
File size : 188 MiB
Duration : 11mn 6s
Overall bit rate : 2 366 Kbps
Writing application : VirtualDubModRus 1.5.10.2 (build 2540/release)
Writing library : VirtualDubMod build 2540/release
Video
ID : 0
Format : MPEG-4 Visual
Format profile : Advanced Simple@L5
Format settings, BVOP : Yes
Format settings, QPel : No
Format settings, GMC : No warppoints
Format settings, Matrix : Custom
Codec ID : XVID
Codec ID/Hint : XviD
Duration : 11mn 6s
Bit rate : 2 164 Kbps
Width : 720 pixels
Height : 416 pixels
Display aspect ratio : 16:9
Frame rate : 25.000 fps
Color space : YUV
Chroma subsampling : 4:2:0
Bit depth : 8 bits
Scan type : Progressive
Bits/(Pixel*Frame) : 0.289
Stream size : 172 MiB (91%)
Writing library : XviD 1.2.0.dev47 (UTC 2006-11-01)
Audio
ID : 1
Format : MPEG Audio
Format version : Version 1
Format profile : Layer 3
Mode : Joint stereo
Mode extension : MS Stereo
Codec ID : 55
Codec ID/Hint : MP3
Duration : 11mn 6s
Bit rate mode : Constant
Bit rate : 192 Kbps
Channel(s) : 2 channels
Sampling rate : 48.0 KHz
Stream size : 15.3 MiB (8%)
Alignment : Split accross interleaves
Interleave, duration : 40 ms (1.00 video frame)
Interleave, preload duration : 500 ms
Language : English

Скриншот c названием фильма

Скриншоты




Показать сообщения:    

Текущее время: 06-Дек 15:08

Часовой пояс: UTC + 3


Вы не можете начинать темы
Вы не можете отвечать на сообщения
Вы не можете редактировать свои сообщения
Вы не можете удалять свои сообщения
Вы не можете голосовать в опросах
Вы не можете прикреплять файлы к сообщениям
Вы не можете скачивать файлы