Невезуха в ненастье / Mauvais Temps (Жан-Луп Фелисиоли / Jean-Loup Felicioli, Ален Ганьоль / Alain Gagnol) [2006, Франция, нуар, анимация, короткий метр, SATRip]


 

[Цитировать]

Невезуха в ненастье
Mauvais Temps- Страна: Франция
Жанр: нуар, анимация, короткий метр
Год выпуска: 2006
Продолжительность: 00:05:08
Перевод: Не требуется (музыкальное сопровождение)
Cубтитры: нет
Режиссер: Жан-Луп Фелисиоли / Jean-Loup Felicioli, Ален Ганьоль / Alain Gagnol
В ролях: анимация
Описание: Решенная в необычной для этих аниматоров черно-белой гамме короткометражка о том, как у незадачливого водителя в довольно странном месте города спустило колесо …

Участник Ottawa International Animation Festival 2007.
Информация о фильме: http://www.imdb.com/title/tt0920753/
Доп. информация: Файл получен через groups.yahoo - спасибо modernist_m. Источник исходного файла не известен, условно выставлен SATRip. Черные полосы убраны в VirtualDubMOD.
На трекере имеются работы этих аниматоров + "Эгоист" в сборнике МИНИ МУВИ №4
Сэмпл: http://multi-up.com/452220
Качество видео: SATRip
Формат видео: AVI
Видео: XviD 720x448 (1.61:1), 25 fps, ATI YVU12 4:2:0 Planar ~1810 kbps avg, 0.22 bit/pixel
Аудио: 48 kHz, MPEG Layer 3, 2 ch, ~192.00 kbps avg

MediaInfo

Полное имя : H:\My Torrents\[apreder]MM_Mauvais_Temps(2006)SATRip.avi
Формат : AVI
Формат/Информация : Audio Video Interleave
Размер файла : 73,9 Мбайт
Продолжительность : 5 м. 8 с.
Общий поток : 2013 Кбит/сек
Программа кодирования : VirtualDubMod 1.5.10.3 | www.virtualdub-fr.org || (build 2550/release)
Библиотека кодирования : VirtualDubMod build 2550/release
Видео
Идентификатор : 0
Формат : MPEG-4 Visual
Профиль формата : Advanced Simple@L5
Параметр BVOP формата : 1
Параметр QPel формата : Нет
Параметр GMC формата : Без точки перехода
Параметр матрицы формата : Default (H.263)
Режим смешивания : Сжатый битовый поток
Идентификатор кодека : XVID
Идентификатор кодека/Подсказка : XviD
Продолжительность : 5 м. 8 с.
Битрейт : 1811 Кбит/сек
Ширина : 720 пикс.
Высота : 448 пикс.
Соотношение сторон : 1,607
Частота кадров : 25,000 кадр/сек
Цветовое пространство : YUV
Подвыборка цветности : 4:2:0
Битовая глубина : 8 бит
Тип развёртки : Прогрессивная
Метод сжатия : С потерями
Бит/(Пиксели*Кадры) : 0.225
Размер потока : 66,5 Мбайт (90%)
Библиотека кодирования : XviD 1.2.1 (UTC 2008-12-04)
Аудио
Идентификатор : 1
Формат : MPEG Audio
Версия формата : Version 1
Профиль формата : Layer 3
Режим : Joint stereo
Расширение режима : MS Stereo
Идентификатор кодека : 55
Идентификатор кодека/Подсказка : MP3
Продолжительность : 5 м. 8 с.
Вид битрейта : Постоянный
Битрейт : 192 Кбит/сек
Канал(ы) : 2 канала(ов)
Частота : 48,0 КГц
Метод сжатия : С потерями
Размер потока : 7,05 Мбайт (10%)
Выравнивание : Соединение по промежуткам
Продолжительность промежутка : 40 мс. (1,00 видеокадр)
Время предзагрузки промежутка : 504 ms
Библиотека кодирования : LAME3.98.2

Скриншот c названием фильма

Скриншоты




Показать сообщения:    

Текущее время: 07-Дек 15:26

Часовой пояс: UTC + 3


Вы не можете начинать темы
Вы не можете отвечать на сообщения
Вы не можете редактировать свои сообщения
Вы не можете удалять свои сообщения
Вы не можете голосовать в опросах
Вы не можете прикреплять файлы к сообщениям
Вы не можете скачивать файлы