Познакомьтесь с Фиблами / Meet the Feebles (Питер Джексон / Peter Jackson) [1989, Новая Зеландия, мюзикл, комедия, DVDRip] VO (voxsolus)


 

[Цитировать]

Познакомьтесь с Фиблами / Meet the Feebles
Страна: Новая Зеландия
Жанр: мюзикл, комедия
Год выпуска: 1989
Продолжительность: 01:32:31
-
Перевод: Любительский (одноголосый закадровый) Константин Филонов (voxsolus)
Cубтитры: нет
-
Режиссер: Питер Джексон / Peter Jackson
В ролях: Донна Акерстен, Стюарт Девени, Марк Хэдлоу, Росс Джолли, Брайан Серджент, Питер Вер-Джонс, Марк Райт, Дэнни Мулрон, Джей Сноуфилд, Даг Рен
-
Описание: Все начинается как милое семейное кукольное телешоу, которое с течением времени постепенно превращается в неимоверно циничный и эксцентричный «стеб» над многими аспектами нашей жизни и закулисной жизнью телевизионных «звезд» в частности. В труппу шоу, за несколько дней до премьеры, когда вовсю идут репетиции, приходит новый участник — еж, влюбляющийся с первого взгляда в юную старлетку, не без взаимности.Но коварная крыса, снимающая в подвале студии садомазохистские порнофильмы с участием необъятных размеров коровы, а по совместительству и драгдилер, имеет свои планы на юную собачку. По ходу фильма бедный ежик, да и зритель вместе с ним, становится свидетелем закулисной жизни участников телепостановки…
-
Доп. информация: Личная оценка:8 из 10.
-
Качество видео: DVDRip
Формат видео: AVI
Видео: 576x432 (1.33:1), 23.976 fps, XviD build 50 ~1002 kbps avg, 0.17 bit/pixel
Аудио: 44.100 kHz, MPEG Layer 3, 2 ch, ~127.70 kbps avg

Константин Филонов о переводе

Если вы хотите получить полное удовольствие от просмотра этого весёлого мультфильма, то я рекомендую Вам смотреть его в моём переводе! Те варианты перевода, что я встречал в сети, сделаны в общем-то неплохо, но всё это, конечно, состряпано по принципу: “Лишь бы передать смысл и общее содержание” - равнодушная и холодная “дословщина”. ТАК такие мультфильмы не переводят. Это,между нами говоря, халтура! Скачайте мой и вы поймёте, что я прав.

MediaInfo

General
Complete name : D:\Релизы\Познакомьтесь с Фиблами.avi
Format : AVI
Format/Info : Audio Video Interleave
File size : 754 MiB
Duration : 1h 32mn
Overall bit rate : 1 139 Kbps
Writing application : VirtualDubMod 1.5.10.3 | www.virtualdub-fr.org || (build 2550/release)
Writing library : VirtualDubMod build 2550/release
Video
ID : 0
Format : MPEG-4 Visual
Format profile : Advanced Simple@L5
Format settings, BVOP : 1
Format settings, QPel : No
Format settings, GMC : No warppoints
Format settings, Matrix : Custom
Codec ID : XVID
Codec ID/Hint : XviD
Duration : 1h 32mn
Bit rate : 1 002 Kbps
Width : 576 pixels
Height : 432 pixels
Display aspect ratio : 4:3
Frame rate : 23.976 fps
Color space : YUV
Chroma subsampling : 4:2:0
Bit depth : 8 bits
Scan type : Progressive
Compression mode : Lossy
Bits/(Pixel*Frame) : 0.168
Stream size : 663 MiB (88%)
Writing library : XviD 1.2.1 (UTC 2008-12-04)
Audio
ID : 1
Format : MPEG Audio
Format version : Version 1
Format profile : Layer 3
Mode : Joint stereo
Mode extension : MS Stereo
Codec ID : 55
Codec ID/Hint : MP3
Duration : 1h 32mn
Bit rate mode : Constant
Bit rate : 128 Kbps
Channel(s) : 2 channels
Sampling rate : 44.1 KHz
Compression mode : Lossy
Stream size : 84.5 MiB (11%)
Alignment : Aligned on interleaves
Interleave, duration : 42 ms (1.00 video frame)
Interleave, preload duration : 522 ms

Скриншоты




Показать сообщения:    

Текущее время: 10-Дек 11:48

Часовой пояс: UTC + 3


Вы не можете начинать темы
Вы не можете отвечать на сообщения
Вы не можете редактировать свои сообщения
Вы не можете удалять свои сообщения
Вы не можете голосовать в опросах
Вы не можете прикреплять файлы к сообщениям
Вы не можете скачивать файлы