Мадам Тутли-Путли / Madame Tutli-Putli (Крис Лэвис, Мацек Щербовски / Chris Lavis, Maciek Szczerbowski) [2007, Канада, Мультфильм, короткометражка, HDTV 1080i]


 

[Цитировать]

Мадам Тутли-Путли / Madame Tutli-Putli- Страна: Канада
Жанр: Мультфильм, короткометражка
Продолжительность: 17:14
Год выпуска: 2007
Перевод: Не требуется
Русские субтитры: нет
Режиссёр: Крис Лэвис, Мацек Щербовски / Chris Lavis, Maciek Szczerbowski
Описание: Короткометражный мультфильм — первая номинация на «Оскар» канадских режиссеров Криса Лэвиса и Мацека Щербовски. «Мадам Тутли-Путли» — их дебютная лента. Ранее Национальным кинокомитетом Канады картина была признана лучшим короткометражным фильмом, получила главный приз Международного фестиваля короткометражек в Торонто и получила ещё более десятка призов на различных кинофестивалях.
Режиссеры картины больше месяца путешествовали на поездах по Канаде, собирая дорожные истории, а над самой картиной трудились более пяти лет.
Сюжет мультфильма таков: молодая женщина с огромным багажом (в прямом и переносном смысле) садится на Ночной поезд и отправляется в путешествие по выдуманному ею миру, сопровождаемая призраками из ее прошлого. Когда солнце клонится к закату, это приключение становится совершенно сюрреалистичным.
Свою кукольную героиню создатели этого стильного, красивого и абсурдного кино с помощью непонятного фокуса снабдили совершенно живыми глазами. Эффект получился настолько удивительный, что секрет глаз мадам Тутли-Путли вполне может претендовать на звание анимационной загадки года. Сами же режиссеры раскрывать секреты ремесла не торопятся и на вопросы отвечают уклончиво: «Черная магия – и немного компьютера».
Дополнительная информация: Собственно, ничего нового - обнаружил три релиза, с которых и взял информацию..спасибо!
http://teatrix.ru/viewtopic.php?t=5132 (549 MB)
http://teatrix.ru/viewtopic.php?t=5113 (224 MB)
http://teatrix.ru/viewtopic.php?t=5110 (222 MB)
Но все они, максимум в DVD качестве. Думаю, по настоящему оценить работу авторов, можно только в HD - поэтому и создал раздачу.
Качество: HDTV 1080i
Формат: TS
Видео: AVC, 1920x1080, 25,000 кадр/сек, 7772 Кбит/сек
Аудио: AC-3, 48,0 КГц, 384 Кбит/сек, 2 канала,
Субтитры: отсутствуют

Подробные технические данные

ОбщееИдентификатор : 2039 (0x7F7)Полное имя Madame Tutli-Putli.tsФормат : MPEG-TSФормат/Информация : Advanced Video CodecРазмер файла : 1,03 ГбайтПродолжительность : 17 м.Общий поток : 8584 Кбит/сек
ВидеоИдентификатор : 513 (0x201)Идентификатор меню : 3863 (0xF17)Формат : AVCФормат/Информация : Advanced Video CodecВерсия формата : Version 2Профиль формата : Main@L4.0Параметр CABAC формата : ДаПараметр ReFrames формата : 4 кадрыПараметры GOP формата : M=1, N=24Идентификатор кодека : 27Продолжительность : 17 м.Битрейт : 7772 Кбит/секШирина : 1920 пикс.Высота : 1080 пикс.Соотношение сторон : 16:9Частота кадров : 25,000 кадр/секЦветовое пространство : YUVПодвыборка цветности : 4:2:0Битовая глубина : 8 битТип развёртки : ЧересстрочнаяПорядок развёртки : Верхнее поле первоеБит/(Пиксели*Кадры) : 0.150Размер потока : 958 Мбайт (90%)Основные цвета : BT.709-5, BT.1361, IEC 61966-2-4, SMPTE RP177Характеристики трансфера : BT.709-5, BT.1361Коэффициенты матрицы : BT.709-5, BT.1361, IEC 61966-2-4 709, SMPTE RP177
АудиоИдентификатор : 661 (0x295)Идентификатор меню : 3863 (0xF17)Формат : AC-3Формат/Информация : Audio Coding 3Расширение режима : CM (complete main)Идентификатор кодека : 6Продолжительность : 17 м.Вид битрейта : ПостоянныйБитрейт : 384 Кбит/секКанал(ы) : 2 канала(ов)Расположение каналов : Front: L RЧастота : 48,0 КГцБитовая глубина : 16 битМетод сжатия : С потерямиЗадержка видео : 12 мс.Размер потока : 47,3 Мбайт (4%)Язык : English
МенюИдентификатор : 259 (0x103)Идентификатор меню : 3863 (0xF17)Продолжительность : 17 м.Список : 513 (0x201) (AVC) / 661 (0x295) (AC-3, English)Язык : / English

Скриншоты




Показать сообщения:    

Текущее время: 07-Дек 17:27

Часовой пояс: UTC + 3


Вы не можете начинать темы
Вы не можете отвечать на сообщения
Вы не можете редактировать свои сообщения
Вы не можете удалять свои сообщения
Вы не можете голосовать в опросах
Вы не можете прикреплять файлы к сообщениям
Вы не можете скачивать файлы